<?xml version="1.0" standalone="no"?>
<!DOCTYPE svg PUBLIC "-//W3C//DTD SVG 1.1//EN" "http://www.w3.org/Graphics/SVG/1.1/DTD/svg11.dtd" >
<svg>
<metadata>
Created by FontForge 20090914 at Wed May 24 08:09:49 2017
 By www-data
Copyright (c) 2010 - 2012, Matt McInerney (matt@pixelspread.com), Pablo Impallari(impallari@gmail.com), Rodrigo Fuenzalida (hello@rfuenzalida.com) with Reserved Font Name "Raleway"
</metadata>
<defs>
<font id="Raleway-ExtraBold" horiz-adv-x="268" >
  <font-face 
    font-family="Raleway"
    font-weight="800"
    font-stretch="normal"
    units-per-em="1000"
    panose-1="2 11 0 3 3 1 1 6 0 3"
    ascent="800"
    descent="-200"
    x-height="524.999"
    cap-height="710"
    bbox="-195 -230.999 1180 920"
    underline-thickness="50"
    underline-position="-50"
    unicode-range="U+0020-U+FB06"
  />
<missing-glyph horiz-adv-x="0" 
 />
    <glyph glyph-name="f_f" unicode="ff" horiz-adv-x="675" 
d="M590 605c-22.667 0 -39 -7.00098 -49 -21.001s-15 -31.667 -15 -53v-67h127v-121h-127v-343h-160v343h-115v-343h-160v343h-67v121h67v28c0 30.667 4.33301 59.167 13 85.5s21 48.833 37 67.5s35.5 33.334 58.5 44.001s49.167 16 78.5 16c21.333 0 43.333 -2.5 66 -7.5
s45.667 -12.167 69 -21.5c16 19.333 35.833 34.833 59.5 46.5s51.5 17.5 83.5 17.5c23.333 0 46 -3 68 -9s44 -13.333 66 -22l-30 -120c-10 4 -21.167 7.66699 -33.5 11s-24.5 5 -36.5 5zM366 508.999v8.99707c0 4.66699 0.333008 9.83398 1 15.501
s1.16699 10.834 1.5 15.501s1.16602 7.66699 2.49902 9c-9.33301 4 -19.5 7 -30.5 9s-20.833 3 -29.5 3c-21.333 0 -36.666 -7.16699 -45.999 -21.5s-14 -31.166 -14 -50.499v-34h115v45z" />
    <glyph glyph-name="f_i" unicode="fi" horiz-adv-x="595" 
d="M91 343l-67.0029 0.00195312v121h67v61c0 30.667 5.33301 59.167 16 85.5s25.834 49.166 45.501 68.499s43.5 34.333 71.5 45s59 16 93 16c38 0 73.833 -6.33301 107.5 -19s67.834 -30.334 102.501 -53.001l-62 -121c-20 17.333 -42.167 31.333 -66.5 42
s-48.166 16 -71.499 16c-25.333 0 -44.333 -7 -57 -21s-19 -31.667 -19 -53v-67h290v-464h-160v343h-130v-343h-160v343z" />
    <glyph glyph-name="f_l" unicode="fl" horiz-adv-x="691" 
d="M689 20c-0.666992 -0.666992 -5.16602 -2.50293 -13.499 -5.50293s-19 -6.16699 -32 -9.5s-27.667 -6.33301 -44 -9s-32.5 -4 -48.5 -4c-22.667 0 -43 3.16699 -61 9.5s-33.333 14.833 -46 25.5s-22.334 23.167 -29.001 37.5s-10 29.5 -10 45.5v379
c0 12 -0.833008 24.833 -2.5 38.5s-5.33398 26.334 -11.001 38.001s-13.667 21.167 -24 28.5s-23.833 11 -40.5 11c-14 0 -25.833 -2.83301 -35.5 -8.5s-17.5 -13.334 -23.5 -23.001s-10.333 -20.667 -13 -33s-4 -25.166 -4 -38.499v-38h79v-121h-79v-343h-160v343h-67v121
h67v76c0 33.333 5.5 62.5 16.5 87.5s26.833 45.833 47.5 62.5s45.334 29.167 74.001 37.5s61 12.5 97 12.5c41.333 0 77 -5 107 -15s54.833 -24.333 74.5 -43s34.167 -41 43.5 -67s14 -55 14 -87v-336c0 -12.667 3.5 -25.5 10.5 -38.5s18.833 -19.5 35.5 -19.5
c6 0 12.167 0.833008 18.5 2.5s12.333 3.33398 18 5.00098s10.5 3.33398 14.5 5.00098s6.33301 2.5 7 2.5z" />
    <glyph glyph-name="f_f_i" unicode="ffi" horiz-adv-x="870" 
d="M91 343l-67.002 -0.00195312v121h67v28c0 30.667 4.33301 59.167 13 85.5s21 48.833 37 67.5s35.5 33.334 58.5 44.001s49.167 16 78.5 16c21.333 0 43.333 -2.5 66 -7.5s45.667 -12.167 69 -21.5c19.333 19.333 43.833 34.833 73.5 46.5s63.834 17.5 102.501 17.5
c34 0 68.667 -6.16699 104 -18.5s71.666 -30.166 108.999 -53.499l-62 -121c-19.333 17.333 -41.166 31.333 -65.499 42s-47.166 16 -68.499 16c-28 0 -48.333 -7 -61 -21s-19 -31.667 -19 -53v-67h290v-464h-161v343h-129v-343h-160v343h-115v-343h-160v343z
M365.998 463.998v44.999v10c0 4.66699 0.333008 9.66699 1 15s1.16699 10.333 1.5 15s1.16602 7.66699 2.49902 9c-9.33301 4 -19.5 7 -30.5 9s-20.833 3 -29.5 3c-21.333 0 -36.666 -7.16699 -45.999 -21.5s-14 -31.166 -14 -50.499v-34h115z" />
    <glyph glyph-name="f_f_l" unicode="ffl" horiz-adv-x="965" 
d="M826 -8c-23.333 0 -44.0039 3.16504 -62.0039 9.49805s-33.167 14.833 -45.5 25.5s-21.833 23.167 -28.5 37.5s-10 29.5 -10 45.5v379c0 12 -1 24.833 -3 38.5s-5.66699 26.334 -11 38.001s-13.166 21.167 -23.499 28.5s-23.833 11 -40.5 11
c-14 0 -25.833 -2.83301 -35.5 -8.5s-17.5 -13.334 -23.5 -23.001s-10.333 -20.667 -13 -33s-4 -25.166 -4 -38.499v-38h79v-121h-79v-343h-160v343h-115v-343h-160v343h-67v121h67v30c0 31.333 4.33301 60 13 86s21.167 48.167 37.5 66.5s36 32.666 59 42.999
s48.5 15.5 76.5 15.5c23.333 0 46 -2.5 68 -7.5s44.667 -12.167 68 -21.5c20.667 21.333 46.834 37.333 78.501 48s67.834 16 108.501 16c82.667 0 143.334 -19.333 182.001 -58s58 -90 58 -154v-336c0 -12.667 3.5 -25.5 10.5 -38.5s18.833 -19.5 35.5 -19.5
c6 0 12.167 0.833008 18.5 2.5s12.333 3.33398 18 5.00098s10.5 3.33398 14.5 5.00098s6.33301 2.5 7 2.5l20 -129c-0.666992 -0.666992 -5.16699 -2.5 -13.5 -5.5s-19 -6.16699 -32 -9.5s-27.667 -6.33301 -44 -9s-32.5 -4 -48.5 -4zM365.996 463.998l-0.00195312 44v10.5
c0 5 0.166992 10.167 0.5 15.5s0.833008 10.5 1.5 15.5s1.33398 8.16699 2.00098 9.5c-9.33301 4 -19.166 6.83301 -29.499 8.5s-19.5 2.5 -27.5 2.5c-21.333 0 -37 -6.5 -47 -19.5s-15 -30.167 -15 -51.5v-35h115z" />
    <glyph glyph-name=".notdef" horiz-adv-x="0" 
 />
    <glyph glyph-name="space" unicode=" " horiz-adv-x="233" 
 />
    <glyph glyph-name="exclam" unicode="!" horiz-adv-x="307" 
d="M74 282v435h160v-435h-160zM74 0v166h160v-166h-160z" />
    <glyph glyph-name="quotedbl" unicode="&#x22;" horiz-adv-x="428" 
d="M55 519v207h136v-207h-136zM237 519v207h135v-207h-135z" />
    <glyph glyph-name="numbersign" unicode="#" horiz-adv-x="739" 
d="M702 412h-151l-27 -114h129v-119h-158l-43 -179h-128l44 179h-92l-43 -179h-128l44 179h-112v119h141l27 114h-119v110h146l46 188h128l-47 -188h92l46 188h128l-47 -188h124v-110zM397 298l26 114h-91l-27 -114h92z" />
    <glyph glyph-name="dollar" unicode="$" horiz-adv-x="641" 
d="M510 502c-2 2.66699 -7.99902 7.00195 -17.999 13.002s-22.5 12.5 -37.5 19.5s-31.667 13.667 -50 20s-36.833 10.833 -55.5 13.5v-136l32 -8c34 -9.33301 64.667 -19.5 92 -30.5s50.666 -24.667 69.999 -41s34.166 -36.166 44.499 -59.499s15.5 -51.333 15.5 -84
c0 -38 -6.66699 -70.333 -20 -97s-31.166 -48.5 -53.499 -65.5s-48 -29.833 -77 -38.5s-59.5 -13.667 -91.5 -15v-116h-70v117c-46 4 -91.5 13.5 -136.5 28.5s-85.5 34.167 -121.5 57.5l72 143c2.66699 -3.33301 10 -8.83301 22 -16.5s27 -15.834 45 -24.501
s38.333 -16.834 61 -24.501s46 -12.834 70 -15.501v133l-48 14c-32.667 10 -61 20.833 -85 32.5s-44 25.167 -60 40.5s-27.833 33 -35.5 53s-11.5 43.333 -11.5 70c0 34.667 6 65.5 18 92.5s28.167 50.167 48.5 69.5s44.333 34.5 72 45.5s57.5 18.167 89.5 21.5v101h70v-101
c44 -4 84.667 -13.667 122 -29s70 -31 98 -47zM426.001 193.002c0 17.333 -7 30.833 -21 40.5s-32.667 18.5 -56 26.5v-120c51.333 2 77 19.667 77 53zM233.001 511.002c0 -16.667 5.83301 -29.667 17.5 -39s29.167 -18 52.5 -26v123c-46.667 -4 -70 -23.333 -70 -58z" />
    <glyph glyph-name="percent" unicode="%" horiz-adv-x="820" 
d="M207 411c-24 0 -46.333 4 -67 12s-38.834 19 -54.501 33s-27.834 30.5 -36.501 49.5s-13 39.167 -13 60.5s4.33301 41.333 13 60s20.834 35 36.501 49s33.834 25 54.501 33s43 12 67 12s46.333 -4 67 -12s38.834 -19 54.501 -33s27.834 -30.333 36.501 -49
s13 -38.667 13 -60s-4.33301 -41.5 -13 -60.5s-20.834 -35.5 -36.501 -49.5s-33.834 -25 -54.501 -33s-43 -12 -67 -12zM207 489c16.667 0 30.833 7.5 42.5 22.5s17.5 33.167 17.5 54.5s-6 39.333 -18 54s-26 22 -42 22c-16.667 0 -30.834 -7.5 -42.501 -22.5
s-17.5 -32.833 -17.5 -53.5c0 -21.333 5.83301 -39.5 17.5 -54.5s25.834 -22.5 42.501 -22.5zM612.999 -10c-24 0 -46.333 4 -67 12s-38.834 19 -54.501 33s-27.834 30.333 -36.501 49s-13 38.667 -13 60s4.33301 41.5 13 60.5s20.834 35.5 36.501 49.5s33.834 25 54.501 33
s43 12 67 12s46.333 -4 67 -12s38.834 -19 54.501 -33s27.834 -30.5 36.501 -49.5s13 -39.167 13 -60.5s-4.33301 -41.333 -13 -60s-20.834 -35 -36.501 -49s-33.834 -25 -54.501 -33s-43 -12 -67 -12zM612.999 68c16.667 0 30.833 7.5 42.5 22.5s17.5 32.833 17.5 53.5
c0 21.333 -6 39.5 -18 54.5s-26 22.5 -42 22.5c-16.667 0 -30.834 -7.5 -42.501 -22.5s-17.5 -33.167 -17.5 -54.5s5.83301 -39.333 17.5 -54s25.834 -22 42.501 -22zM104.998 56l282 324l256 339l72 -64l-273 -316l-266 -348z" />
    <glyph glyph-name="ampersand" unicode="&#x26;" horiz-adv-x="733" 
d="M522 0l-47 49.0049c-29.333 -19.333 -60.333 -34 -93 -44s-66 -15 -100 -15c-38.667 0 -73.167 6.16699 -103.5 18.5s-55.833 28.666 -76.5 48.999s-36.5 43.5 -47.5 69.5s-16.5 53 -16.5 81c0 21.333 3 41.166 9 59.499s14.167 35.166 24.5 50.499
s22.166 29.666 35.499 42.999s27.666 25.666 42.999 36.999c-12 14.667 -22.333 28 -31 40s-15.667 23.833 -21 35.5s-9.16602 23 -11.499 34s-3.5 22.833 -3.5 35.5c0 27.333 5 51.833 15 73.5s24 40.167 42 55.5s39.333 27 64 35s51.334 12 80.001 12
c24.667 0 49 -3.16699 73 -9.5s45.167 -16.333 63.5 -30s33.166 -30.667 44.499 -51s17 -44.5 17 -72.5c0 -38 -10 -71.5 -30 -100.5s-46 -55.5 -78 -79.5l111 -118c8.66699 20 15.5 41.833 20.5 65.5s7.5 49.5 7.5 77.5h130c-0.666992 -49.333 -6.66699 -93.833 -18 -133.5
s-26.666 -75.5 -45.999 -107.5l153 -160h-210zM299 115.005c30.667 0 60.668 9 90.001 27l-141 150c-17.333 -13.333 -31 -26.666 -41 -39.999s-15 -28.333 -15 -45c0 -10.667 2.33301 -21.5 7 -32.5s11.5 -20.833 20.5 -29.5s20.167 -15.834 33.5 -21.501
s28.666 -8.5 45.999 -8.5zM228.001 549.005c0 -10.667 3.33203 -20.502 9.99902 -29.502s18.667 -22.167 36 -39.5c20.667 13.333 36 25.333 46 36s15 23.334 15 38.001s-4.66699 26.334 -14 35.001s-21.666 13 -36.999 13c-17.333 0 -31 -5 -41 -15s-15 -22.667 -15 -38z
" />
    <glyph glyph-name="quotesingle" unicode="'" horiz-adv-x="242" 
d="M54 522v204h135v-204h-135z" />
    <glyph glyph-name="parenleft" unicode="(" horiz-adv-x="324" 
d="M30 347c0 34 3.83105 68 11.498 102s18.334 68.333 32.001 103s29.834 69.667 48.501 105s38.667 71 60 107l122 -50c-9.33301 -14.667 -21 -35.5 -35 -62.5s-27.667 -57.5 -41 -91.5s-24.833 -69.667 -34.5 -107s-14.5 -73.666 -14.5 -108.999
c0 -54 11.333 -109.5 34 -166.5s51.667 -116.833 87 -179.5l-117 -57c-20.667 30.667 -40.167 62.667 -58.5 96s-34.5 67.166 -48.5 101.499s-25.167 69 -33.5 104s-12.5 69.833 -12.5 104.5z" />
    <glyph glyph-name="parenright" unicode=")" horiz-adv-x="324" 
d="M294 347c0 -34.667 -4.16797 -69.5 -12.501 -104.5s-19.5 -69.667 -33.5 -104s-30.333 -68.166 -49 -101.499s-38.334 -65.333 -59.001 -96l-116 57c35.333 62.667 64.333 122.5 87 179.5s34 112.5 34 166.5c0 35.333 -4.83301 71.666 -14.5 108.999
s-21.167 73 -34.5 107s-27 64.5 -41 91.5s-25.667 47.833 -35 62.5l122 50c21.333 -36 41.333 -71.667 60 -107s34.834 -70.333 48.501 -105s24.334 -69 32.001 -103s11.5 -68 11.5 -102z" />
    <glyph glyph-name="asterisk" unicode="*" horiz-adv-x="354" 
d="M71 510l47 75l-71 21l21 67l73 -34l-6 80h83l-6 -80l74 34l21 -67l-71 -21l47 -75l-59 -39l-47 79l-47 -79z" />
    <glyph glyph-name="plus" unicode="+" horiz-adv-x="426" 
d="M379 419v-128h-94v-104h-144v104h-95v128h95v104h144v-104h94z" />
    <glyph glyph-name="comma" unicode="," horiz-adv-x="249" 
d="M23 -19c2 0 5.16699 0.332031 9.5 0.999023s8.5 2.33398 12.5 5.00098s7.5 6.16699 10.5 10.5s4.83301 10.5 5.5 18.5v147h130v-177c0 -23.333 -5.5 -42.5 -16.5 -57.5s-24.667 -27 -41 -36s-34.333 -15.333 -54 -19s-38.5 -5.5 -56.5 -5.5v113z" />
    <glyph glyph-name="hyphen" unicode="-" horiz-adv-x="415" 
d="M54 203v144h308v-144h-308z" />
    <glyph glyph-name="period" unicode="." horiz-adv-x="238" 
d="M54 0v163h130v-163h-130z" />
    <glyph glyph-name="slash" unicode="/" horiz-adv-x="734" 
d="M709 710l-505 -710h-176l504 710h177z" />
    <glyph glyph-name="zero" unicode="0" horiz-adv-x="614" 
d="M569 293c0 -44 -6.66699 -84.5 -20 -121.5s-31.666 -69 -54.999 -96s-51 -48 -83 -63s-66.667 -22.5 -104 -22.5s-71.833 7.5 -103.5 22.5s-59.167 36 -82.5 63s-41.666 59 -54.999 96s-20 77.5 -20 121.5s6.66699 84.5 20 121.5s31.666 69 54.999 96
s50.833 48.167 82.5 63.5s66.167 23 103.5 23s72 -7.66699 104 -23s59.667 -36.5 83 -63.5s41.666 -59 54.999 -96s20 -77.5 20 -121.5zM407 293c0 46.667 -9.33301 84.5 -28 113.5s-42.667 43.5 -72 43.5c-30 0 -54.333 -14.5 -73 -43.5s-28 -66.833 -28 -113.5
s9.33301 -84.334 28 -113.001s43 -43 73 -43c29.333 0 53.333 14.333 72 43s28 66.334 28 113.001z" />
    <glyph glyph-name="one" unicode="1" horiz-adv-x="518" 
d="M494 144v-144h-432v144h142v255c-6 -8 -15.5 -16.167 -28.5 -24.5s-27.167 -16 -42.5 -23s-31.166 -12.667 -47.499 -17s-30.833 -6.5 -43.5 -6.5v148c10.667 0 24.5 3.66699 41.5 11s33.833 16.166 50.5 26.499s31.667 20.833 45 31.5s21.666 19.334 24.999 26.001h163
v-427h127z" />
    <glyph glyph-name="two" unicode="2" horiz-adv-x="584" 
d="M37 0c0 31.333 2.49805 59.334 7.49805 84.001s13.5 47.334 25.5 68.001s27.833 39.667 47.5 57s44.167 34 73.5 50l78.5 42c21 11.333 37.833 21.333 50.5 30s21.667 16.667 27 24s8 15.666 8 24.999c0 18.667 -6.83301 33.667 -20.5 45s-32.834 17 -57.501 17
c-28 0 -52.333 -6.83301 -73 -20.5s-40.667 -31.5 -60 -53.5l-101 118c10.667 12 24.834 23.667 42.501 35s37.834 21.5 60.501 30.5s47.5 16.167 74.5 21.5s55.167 8 84.5 8c72 0 127.333 -15.667 166 -47s58 -73.666 58 -126.999c0 -22 -3.5 -41.667 -10.5 -59
s-16.167 -32.833 -27.5 -46.5s-24.166 -25.667 -38.499 -36s-28.833 -19.833 -43.5 -28.5l-32.5 -19c-11.667 -6.66699 -23.167 -13.834 -34.5 -21.501s-22 -15.834 -32 -24.501s-18.667 -18 -26 -28h256v-144h-503z" />
    <glyph glyph-name="three" unicode="3" horiz-adv-x="568" 
d="M394 237c20.667 -4 39.498 -11.1621 56.498 -21.4951s31.667 -23.333 44 -39s21.833 -33.667 28.5 -54s10 -42.166 10 -65.499c0 -31.333 -6.33301 -59.5 -19 -84.5s-30.834 -46.333 -54.501 -64s-52.167 -31.334 -85.5 -41.001s-70.666 -14.5 -111.999 -14.5
c-100.667 0 -179.667 29.667 -237 89l86 114c17.333 -18.667 37.666 -32.834 60.999 -42.501s51 -14.5 83 -14.5c74.667 0 112 27.667 112 83c0 30 -11.167 52.667 -33.5 68s-57.5 23 -105.5 23h-29v115h33c36.667 0 65.5 7.66699 86.5 23s31.5 35.666 31.5 60.999
c0 22 -7.66699 38.667 -23 50s-35.666 17 -60.999 17c-27.333 0 -52.166 -6.5 -74.499 -19.5s-41.166 -31.5 -56.499 -55.5l-101 116c10.667 14 24.834 27 42.501 39s37.5 22.167 59.5 30.5s45.667 14.833 71 19.5s51 7 77 7c35.333 0 67.666 -4.16699 96.999 -12.5
s54.5 -20.333 75.5 -36s37.167 -34.334 48.5 -56.001s17 -45.834 17 -72.501c0 -20 -3.16699 -39 -9.5 -57s-15.166 -34.333 -26.499 -49s-24.833 -26.834 -40.5 -36.501s-32.834 -16.167 -51.501 -19.5z" />
    <glyph glyph-name="four" unicode="4" horiz-adv-x="574" 
d="M296 -127v137h-276v143l327 418h109v-417h88v-144h-88v-137h-160zM179 154h135v177z" />
    <glyph glyph-name="five" unicode="5" horiz-adv-x="556" 
d="M292 322c34 0 65.3311 -5.66895 93.998 -17.002s53.5 -27 74.5 -47s37.333 -44 49 -72s17.5 -59 17.5 -93c0 -36 -6.66699 -68.833 -20 -98.5s-31.833 -55.167 -55.5 -76.5s-52 -37.833 -85 -49.5s-68.833 -17.5 -107.5 -17.5c-52 0 -98.667 10.333 -140 31
s-73 49.667 -95 87l90 99c19.333 -23.333 41.833 -42 67.5 -56s51.834 -21 78.501 -21c30.667 0 55.5 9 74.5 27s28.5 42 28.5 72c0 28.667 -8.83301 51.667 -26.5 69s-40.167 26 -67.5 26c-18 0 -34.833 -4 -50.5 -12s-27.834 -19.333 -36.501 -34h-139
c0 0.666992 1.33301 7.5 4 20.5s5.83398 29.833 9.50098 50.5s8 43.834 13 69.501l15.5 78.5l41 213h353v-146h-237l-21 -121c4.66699 4.66699 12.834 8.83398 24.501 12.501s27.167 5.5 46.5 5.5z" />
    <glyph glyph-name="six" unicode="6" horiz-adv-x="607" 
d="M569 239c0 -34.667 -6.66699 -67.1699 -20 -97.5029s-31.666 -56.666 -54.999 -78.999s-51 -40 -83 -53s-66.667 -19.5 -104 -19.5c-41.333 0 -78.333 7.66699 -111 23s-60.334 37.333 -83.001 66s-40 63.834 -52 105.501s-18 89.167 -18 142.5
c0 62 6.5 117.167 19.5 165.5s31.5 89 55.5 122s53.333 58.167 88 75.5s73.667 26 117 26c44 0 84.833 -9 122.5 -27s70.834 -44 99.501 -78l-90 -102c-16.667 21.333 -36.667 38 -60 50s-48 18 -74 18c-39.333 0 -70.5 -14 -93.5 -42s-35.167 -67.667 -36.5 -119
c13.333 18 31 32 53 42s47.667 15 77 15c35.333 0 68.166 -6 98.499 -18s56.5 -28.5 78.5 -49.5s39.333 -45.667 52 -74s19 -59.166 19 -92.499zM307 124.997c14.667 0 28.666 3 41.999 9s25 14.167 35 24.5s18 22.5 24 36.5s9 28.667 9 44c0 14.667 -3 28.667 -9 42
s-14 24.833 -24 34.5s-21.667 17.334 -35 23.001s-27.333 8.5 -42 8.5c-15.333 0 -29.666 -2.83301 -42.999 -8.5s-25 -13.334 -35 -23.001s-17.833 -21.167 -23.5 -34.5s-8.5 -27.333 -8.5 -42c0 -15.333 3 -30 9 -44s14 -26.167 24 -36.5s21.667 -18.5 35 -24.5
s27.333 -9 42 -9z" />
    <glyph glyph-name="seven" unicode="7" horiz-adv-x="584" 
d="M332 438h-298v146h550l-350 -710h-181z" />
    <glyph glyph-name="eight" unicode="8" horiz-adv-x="608" 
d="M567 215c0 -34 -7 -64.6631 -21 -91.9961s-33 -50.833 -57 -70.5s-52 -34.834 -84 -45.501s-66 -16 -102 -16c-35.333 0 -68.833 5.5 -100.5 16.5s-59.5 26.5 -83.5 46.5s-43 44.167 -57 72.5s-21 59.833 -21 94.5c0 18.667 3 36.167 9 52.5s13.833 31.166 23.5 44.499
s20.5 25 32.5 35s23.667 18.667 35 26c-22 12 -40.667 29.667 -56 53s-23 48 -23 74c0 32.667 7.5 61.834 22.5 87.501s34.167 47 57.5 64s49.333 30 78 39s56.667 13.5 84 13.5s55.333 -4.33301 84 -13s54.667 -21.5 78 -38.5s42.5 -38.167 57.5 -63.5
s22.5 -54.333 22.5 -87c0 -13.333 -2 -26.333 -6 -39s-9.66699 -24.834 -17 -36.501s-15.833 -22 -25.5 -31s-19.834 -16.5 -30.501 -22.5c12 -7.33301 24 -16.333 36 -27s22.833 -22.834 32.5 -36.501s17.334 -28.834 23.001 -45.501s8.5 -35 8.5 -55zM404 225.004
c0 28 -10 49.668 -30 65.001s-43.333 23 -70 23c-28 0 -51.667 -8 -71 -24s-29 -37.667 -29 -65c0 -13.333 2.83301 -25.333 8.5 -36s13 -19.834 22 -27.501s19.5 -13.667 31.5 -18s24.667 -6.5 38 -6.5c14 0 27 2.16699 39 6.5s22.5 10.5 31.5 18.5s16.167 17.5 21.5 28.5
s8 22.833 8 35.5zM225 503.005c0 -12 2.33105 -22.332 6.99805 -30.999s10.667 -15.834 18 -21.501s15.833 -10 25.5 -13s19.167 -4.5 28.5 -4.5s18.833 1.5 28.5 4.5s18.334 7.5 26.001 13.5s13.834 13.333 18.501 22s7 18.667 7 30c0 19.333 -7.83301 35.166 -23.5 47.499
s-34.5 18.5 -56.5 18.5c-22.667 0 -41.5 -6.16699 -56.5 -18.5s-22.5 -28.166 -22.5 -47.499z" />
    <glyph glyph-name="nine" unicode="9" horiz-adv-x="590" 
d="M30 322c0 34.667 6.66699 67.1689 20 97.502s31.666 56.666 54.999 78.999s51 40 83 53s66.667 19.5 104 19.5c41.333 0 78.333 -7.66699 111 -23s60.334 -37.333 83.001 -66s40 -64 52 -106s18 -89.333 18 -142c0 -62 -6.5 -117.167 -19.5 -165.5s-31.5 -89 -55.5 -122
s-53.333 -58.167 -88 -75.5s-73.667 -26 -117 -26c-44 0 -84.833 9 -122.5 27s-70.834 44 -99.501 78l90 102c16.667 -21.333 36.667 -38 60 -50s48 -18 74 -18c39.333 0 70.5 14 93.5 42s35.167 67.667 36.5 119c-13.333 -18 -31 -32 -53 -42s-47.667 -15 -77 -15
c-35.333 0 -68.166 6 -98.499 18s-56.5 28.5 -78.5 49.5s-39.333 45.667 -52 74s-19 59.166 -19 92.499zM292 436.002c-14.667 0 -28.666 -3 -41.999 -9s-25 -14.167 -35 -24.5s-18 -22.5 -24 -36.5s-9 -28.667 -9 -44s2.83301 -29.5 8.5 -42.5s13.5 -24.333 23.5 -34
s21.667 -17.334 35 -23.001s27.666 -8.5 42.999 -8.5c14.667 0 28.667 2.83301 42 8.5s25 13.334 35 23.001s18 21 24 34s9 27.167 9 42.5s-3 30 -9 44s-14 26.167 -24 36.5s-21.667 18.5 -35 24.5s-27.333 9 -42 9z" />
    <glyph glyph-name="colon" unicode=":" horiz-adv-x="261" 
d="M65 356v163h131v-163h-131zM65 0v163h131v-163h-131z" />
    <glyph glyph-name="semicolon" unicode=";" horiz-adv-x="265" 
d="M68 356v163h130v-163h-130zM30 -19c2 0 5 0.332031 9 0.999023s8 2.33398 12 5.00098s7.66699 6.16699 11 10.5s5.33301 10.5 6 18.5v147h130v-177c0 -23.333 -5.5 -42.5 -16.5 -57.5s-24.667 -27 -41 -36s-34.333 -15.333 -54 -19s-38.5 -5.5 -56.5 -5.5v113z" />
    <glyph glyph-name="less" unicode="&#x3c;" horiz-adv-x="511" 
d="M32 293l422 256v-170l-190 -120l190 -113v-179l-422 250v76z" />
    <glyph glyph-name="equal" unicode="=" horiz-adv-x="435" 
d="M59 124v102h318v-102h-318zM59 326v102h318v-102h-318z" />
    <glyph glyph-name="greater" unicode="&#x3e;" horiz-adv-x="511" 
d="M479 217l-423 -250v179l190 113l-190 120v170l423 -256v-76z" />
    <glyph glyph-name="question" unicode="?" horiz-adv-x="494" 
d="M112 245c0 15.333 1.00488 29.999 3.00488 43.999s5.83301 27.5 11.5 40.5s13.667 25.167 24 36.5s24.166 21.666 41.499 30.999l35 18.5c14.667 7.66699 28.667 16.5 42 26.5s25 21.5 35 34.5s15 27.5 15 43.5c0 22 -7.83301 39.167 -23.5 51.5
s-33.834 18.5 -54.501 18.5c-13.333 0 -25.333 -2.5 -36 -7.5s-20 -11 -28 -18s-15.167 -14.833 -21.5 -23.5l-16.5 -23l-103 72c17.333 40.667 44.833 72.334 82.5 95.001s80.167 34 127.5 34c25.333 0 50.666 -3.66699 75.999 -11s48.166 -19 68.499 -35
s36.833 -36.667 49.5 -62s19 -56 19 -92c0 -38 -8 -69.833 -24 -95.5s-39.333 -48.167 -70 -67.5c-14 -9.33301 -28.167 -17.666 -42.5 -24.999s-27.333 -15 -39 -23s-21.334 -17 -29.001 -27s-11.5 -22 -11.5 -36h-131zM115.005 -0.000976562v150h131v-150h-131z" />
    <glyph glyph-name="at" unicode="@" horiz-adv-x="840" 
d="M425 603c48.667 0 95.8359 -7.8291 141.503 -23.4961s85.834 -39.334 120.501 -71.001s62.5 -71.5 83.5 -119.5s31.5 -104 31.5 -168c0 -9.33301 -0.5 -21.666 -1.5 -36.999s-3.16699 -31.666 -6.5 -48.999s-8.33301 -35 -15 -53s-15.834 -34.333 -27.501 -49
s-26.334 -26.5 -44.001 -35.5s-38.834 -13.5 -63.501 -13.5c-18 0 -33.167 2.5 -45.5 7.5s-22.166 11.167 -29.499 18.5s-12.833 15.666 -16.5 24.999s-6.16699 18.333 -7.5 27c-21.333 -21.333 -46.666 -38.5 -75.999 -51.5s-62 -19.5 -98 -19.5
c-26.667 0 -49.834 3.83301 -69.501 11.5s-36 18 -49 31s-22.833 28.333 -29.5 46s-10 36.834 -10 57.501c0 28.667 5.83301 52.667 17.5 72s26.667 35 45 47s39 20.667 62 26s45.833 8 68.5 8c28 0 51 -2.83301 69 -8.5s31.667 -10.5 41 -14.5c0 16 -1.66699 30.667 -5 44
s-9.16602 24.666 -17.499 33.999s-19.5 16.666 -33.5 21.999s-32 8 -54 8c-28 0 -53 -3.83301 -75 -11.5s-40.667 -18.167 -56 -31.5l-28 83c25.333 17.333 52.666 30 81.999 38s60 12 92 12c45.333 0 80.666 -6.83301 105.999 -20.5s44.166 -30.834 56.499 -51.501
s19.833 -43.5 22.5 -68.5s4 -48.5 4 -70.5v-82c0 -14.667 0.333008 -29.167 1 -43.5s2.66699 -27 6 -38s8.33301 -20 15 -27s16 -10.5 28 -10.5c16.667 0 30.167 6.5 40.5 19.5s18.333 28.667 24 47s9.33398 37.333 11.001 57s2.5 35.834 2.5 48.501
c0 45.333 -7.5 87.333 -22.5 126s-36.5 72.167 -64.5 100.5s-61.5 50.5 -100.5 66.5s-82.5 24 -130.5 24s-91.333 -7.83301 -130 -23.5s-71.667 -37.334 -99 -65.001s-48.333 -60.667 -63 -99s-22 -80.166 -22 -125.499c0 -43.333 6.83301 -84 20.5 -122
s33.5 -71.333 59.5 -100s57.5 -51.167 94.5 -67.5s78.833 -24.5 125.5 -24.5c33.333 0 61.5 3.66699 84.5 11s47.167 16.333 72.5 27l18 -59c-28 -13.333 -57 -23.333 -87 -30s-60 -10 -90 -10c-50 0 -97 9 -141 27s-82.5 43.333 -115.5 76s-59 72.167 -78 118.5
s-28.5 98.166 -28.5 155.499c0 60 10.5 113.167 31.5 159.5s49.167 85.166 84.5 116.499s76.166 55.166 122.499 71.499s94.833 24.5 145.5 24.5zM466.002 98.0039c18.667 9.33301 31.498 19.666 38.498 30.999s10.5 24 10.5 38v28
c-9.33301 3.33301 -23.666 7.33301 -42.999 12s-40.333 7 -63 7c-29.333 0 -53.166 -5.5 -71.499 -16.5s-27.5 -29.167 -27.5 -54.5c0 -7.33301 1 -14.833 3 -22.5s5.66699 -14.667 11 -21s12.5 -11.666 21.5 -15.999s20.5 -6.5 34.5 -6.5s28.667 2 44 6s29.333 9 42 15z
" />
    <glyph glyph-name="A" unicode="A" horiz-adv-x="673" 
d="M-2 0l273 710h133l272 -710h-174l-55 159h-221l-54 -159h-174zM337 536l-85 -264h167z" />
    <glyph glyph-name="B" unicode="B" horiz-adv-x="684" 
d="M655 182c0 -30.667 -6.33398 -57.332 -19.001 -79.999s-30 -41.5 -52 -56.5s-47.667 -26.333 -77 -34s-60.333 -11.5 -93 -11.5h-346v710h395c24.667 0 47 -5.33301 67 -16s37 -24.5 51 -41.5s24.833 -36.333 32.5 -58s11.5 -43.834 11.5 -66.501
c0 -34 -8.5 -66 -25.5 -96s-42.5 -52.667 -76.5 -68c40.667 -12 72.834 -33.333 96.501 -64s35.5 -70 35.5 -118zM487.999 215.002c0 22 -6.33301 40.667 -19 56s-28.667 23 -48 23h-189v-155h182c21.333 0 39 7 53 21s21 32.333 21 55zM231.999 570.002l-0.000976562 -147
h161c18 0 34 6 48 18s21 30.667 21 56c0 23.333 -6.16699 41.333 -18.5 54s-27.166 19 -44.499 19h-167z" />
    <glyph glyph-name="C" unicode="C" horiz-adv-x="663" 
d="M27 361c0 42.667 7.66602 85.167 22.999 127.5s37.666 80.166 66.999 113.499s65.166 60.333 107.499 81s90.5 31 144.5 31c63.333 0 118.333 -14.333 165 -43s81.334 -66 104.001 -112l-126 -88c-7.33301 18.667 -16.666 34.167 -27.999 46.5s-23.666 22.333 -36.999 30
s-27.166 13 -41.499 16s-27.833 4.5 -40.5 4.5c-29.333 0 -54.666 -6.33301 -75.999 -19s-39 -29 -53 -49s-24.5 -42.667 -31.5 -68s-10.5 -51 -10.5 -77c0 -28 4.16699 -55 12.5 -81s20 -49 35 -69s33.167 -35.833 54.5 -47.5s45 -17.5 71 -17.5
c13.333 0 27.166 1.83301 41.499 5.5s28.166 9.33398 41.499 17.001s25.333 17.667 36 30s19.334 27.5 26.001 45.5l135 -79c-10.667 -26 -26.167 -49.333 -46.5 -70s-43.5 -38 -69.5 -52s-53.5 -24.667 -82.5 -32s-57.5 -11 -85.5 -11c-49.333 0 -94.5 10.5 -135.5 31.5
s-76.333 48.833 -106 83.5s-52.834 74 -69.501 118s-25 88.667 -25 134z" />
    <glyph glyph-name="D" unicode="D" horiz-adv-x="717" 
d="M68 0v710h265c58.667 0 110 -9.33301 154 -28s80.833 -44 110.5 -76s52 -69.5 67 -112.5s22.5 -88.833 22.5 -137.5c0 -54 -8.33301 -102.833 -25 -146.5s-40.5 -81 -71.5 -112s-68.333 -55 -112 -72s-92.167 -25.5 -145.5 -25.5h-265zM520 356
c0 31.333 -4.16797 59.8311 -12.501 85.498s-20.5 47.834 -36.5 66.501s-35.667 33 -59 43s-49.666 15 -78.999 15h-101v-422h101c30 0 56.667 5.33301 80 16s42.833 25.5 58.5 44.5s27.667 41.333 36 67s12.5 53.834 12.5 84.501z" />
    <glyph glyph-name="E" unicode="E" horiz-adv-x="601" 
d="M567 144v-144h-499v710h490v-144h-326v-138h280v-133h-280v-151h335z" />
    <glyph glyph-name="F" unicode="F" horiz-adv-x="565" 
d="M68 0v710h482v-144h-318v-153h262v-133h-262v-280h-164z" />
    <glyph glyph-name="G" unicode="G" horiz-adv-x="705" 
d="M528 69c-25.333 -25.333 -52.1631 -43.998 -80.4961 -55.998s-59.166 -18 -92.499 -18c-44.667 0 -86.834 10 -126.501 30s-74.334 46.667 -104.001 80s-53.167 72.166 -70.5 116.499s-26 90.5 -26 138.5c0 48.667 8.66699 94.667 26 138s41.333 81 72 113
s66.667 57.333 108 76s86 28 134 28c62.667 0 117.667 -13.833 165 -41.5s82.666 -65.5 105.999 -113.5l-123 -92c-14.667 32 -35.834 56.833 -63.501 74.5s-57.5 26.5 -89.5 26.5c-25.333 0 -48.166 -5.5 -68.499 -16.5s-38 -26.333 -53 -46s-26.5 -42.5 -34.5 -68.5
s-12 -54 -12 -84c0 -30.667 4.33301 -59 13 -85s20.667 -48.5 36 -67.5s33.666 -33.833 54.999 -44.5s44.666 -16 69.999 -16c29.333 0 57.333 7.16699 84 21.5s51.667 36.166 75 65.499v24h-137v119h273v-371h-136v69z" />
    <glyph glyph-name="H" unicode="H" horiz-adv-x="747" 
d="M679 710v-710h-164v291h-283v-291h-164v710h164v-275h283v275h164z" />
    <glyph glyph-name="I" unicode="I" horiz-adv-x="300" 
d="M68 0v710h164v-710h-164z" />
    <glyph glyph-name="J" unicode="J" horiz-adv-x="498" 
d="M44 167c6.66699 -5.33301 20.8311 -12.001 42.498 -20.001s46.834 -12 75.501 -12c24.667 0 44.334 4.16699 59.001 12.5s26 21.166 34 38.499s13.167 39.5 15.5 66.5s3.5 59.167 3.5 96.5v361h164v-361c0 -54 -2.83301 -103.167 -8.5 -147.5s-18 -82.166 -37 -113.499
s-46.833 -55.666 -83.5 -72.999s-85.667 -26 -147 -26c-60 0 -111.333 14.667 -154 44z" />
    <glyph glyph-name="K" unicode="K" horiz-adv-x="677" 
d="M68 0v710h164v-320l274 320h170l-266 -317l284 -393h-173l-208 301l-81 -88v-213h-164z" />
    <glyph glyph-name="L" unicode="L" horiz-adv-x="589" 
d="M68 0v710h164v-566h344v-144h-508z" />
    <glyph glyph-name="M" unicode="M" horiz-adv-x="860" 
d="M628 0v425l-154 -309h-88l-154 309v-425h-164v710h178l184 -371l185 371h177v-710h-164z" />
    <glyph glyph-name="N" unicode="N" horiz-adv-x="759" 
d="M232 406v-406h-164v710h128l331 -417v417h164v-710h-132z" />
    <glyph glyph-name="O" unicode="O" horiz-adv-x="734" 
d="M366 -6c-50.667 0 -96.667 10.332 -138 30.999s-76.833 47.834 -106.5 81.501s-52.667 72.167 -69 115.5s-24.5 88 -24.5 134c0 46.667 8.5 91.667 25.5 135s40.667 81.5 71 114.5s66.333 59.333 108 79s87.167 29.5 136.5 29.5c50.667 0 96.667 -10.333 138 -31
s76.833 -48 106.5 -82s52.5 -72.667 68.5 -116s24 -87.333 24 -132c0 -46.667 -8.5 -91.667 -25.5 -135s-40.5 -81.5 -70.5 -114.5s-65.833 -59.5 -107.5 -79.5s-87.167 -30 -136.5 -30zM195 353.999c0 -27.333 3.83203 -53.835 11.499 -79.502s18.667 -48.5 33 -68.5
s32.333 -36 54 -48s46.5 -18 74.5 -18c28.667 0 53.667 6.33301 75 19s39.166 29.167 53.499 49.5s25 43.333 32 69s10.5 51.834 10.5 78.501c0 27.333 -3.83301 53.833 -11.5 79.5s-18.834 48.334 -33.501 68.001s-32.667 35.334 -54 47.001s-45.666 17.5 -72.999 17.5
c-28.667 0 -53.667 -6.16699 -75 -18.5s-39.166 -28.5 -53.499 -48.5s-25.166 -42.833 -32.499 -68.5s-11 -51.834 -11 -78.501z" />
    <glyph glyph-name="P" unicode="P" horiz-adv-x="620" 
d="M68 0l0.000976562 710.002h303c34 0 65.167 -7 93.5 -21s52.666 -32.333 72.999 -55s36.333 -48.334 48 -77.001s17.5 -57.667 17.5 -87c0 -31.333 -5.5 -61.333 -16.5 -90s-26.333 -54.334 -46 -77.001s-43.5 -40.667 -71.5 -54s-59 -20 -93 -20h-144v-229h-164z
M232.001 372.002h133.997c19.333 0 36 8.33301 50 25s21 41 21 73c0 16.667 -2.16699 31 -6.5 43s-10.166 22 -17.499 30s-15.666 13.833 -24.999 17.5s-18.666 5.5 -27.999 5.5h-128v-194z" />
    <glyph glyph-name="Q" unicode="Q" horiz-adv-x="736" 
d="M537 43c-25.333 -15.333 -52.167 -27.165 -80.5 -35.498s-58.5 -12.5 -90.5 -12.5c-50.667 0 -96.667 10.167 -138 30.5s-76.833 47.333 -106.5 81s-52.667 72.167 -69 115.5s-24.5 88 -24.5 134c0 46.667 8.5 91.667 25.5 135s40.667 81.666 71 114.999
s66.333 59.833 108 79.5s87.167 29.5 136.5 29.5c50.667 0 96.667 -10.5 138 -31.5s76.833 -48.5 106.5 -82.5s52.5 -72.667 68.5 -116s24 -87.333 24 -132c0 -44 -7.33301 -85.833 -22 -125.5s-35 -75.834 -61 -108.501l108 -119h-155zM367.999 141.001
c25.333 0 47.665 5 66.998 15l-112 124h154l37 -41c16.667 36.667 25 75.667 25 117c0 27.333 -3.83301 53.833 -11.5 79.5s-18.834 48.334 -33.501 68.001s-32.667 35.5 -54 47.5s-45.666 18 -72.999 18c-28.667 0 -53.667 -6.16699 -75 -18.5
s-39.166 -28.666 -53.499 -48.999s-25.166 -43.333 -32.499 -69s-11 -51.834 -11 -78.501c0 -27.333 3.83301 -53.833 11.5 -79.5s18.667 -48.334 33 -68.001s32.333 -35.5 54 -47.5s46.5 -18 74.5 -18z" />
    <glyph glyph-name="R" unicode="R" horiz-adv-x="680" 
d="M68 0v710.001h320c33.333 0 64.166 -7 92.499 -21s52.833 -32.333 73.5 -55s36.834 -48.334 48.501 -77.001s17.5 -57.667 17.5 -87c0 -22 -2.66699 -43.167 -8 -63.5s-13 -39.5 -23 -57.5s-22.167 -34.167 -36.5 -48.5s-30.5 -26.5 -48.5 -36.5l163 -264h-185l-143 229
h-107v-229h-164zM232 372.001l150 0.000976562c19.333 0 36 9.16699 50 27.5s21 41.833 21 70.5c0 29.333 -8 52.666 -24 69.999s-33.333 26 -52 26h-145v-194z" />
    <glyph glyph-name="S" unicode="S" horiz-adv-x="616" 
d="M495 502c-2.66699 2.66699 -9.99609 7.6582 -21.9961 14.9912s-27 15 -45 23s-37.667 15 -59 21s-42.666 9 -63.999 9c-28 0 -49.5 -5 -64.5 -15s-22.5 -24.667 -22.5 -44c0 -12 3.33301 -22 10 -30s16.167 -15.167 28.5 -21.5s27.666 -12.166 45.999 -17.499l63.5 -18
c34 -9.33301 64.667 -19.5 92 -30.5s50.666 -24.667 69.999 -41s34.166 -36.166 44.499 -59.499s15.5 -51.333 15.5 -84c0 -40 -7.5 -73.833 -22.5 -101.5s-34.833 -50 -59.5 -67s-53.167 -29.333 -85.5 -37s-65.5 -11.5 -99.5 -11.5c-26 0 -52.5 2 -79.5 6
s-53.5 9.83301 -79.5 17.5s-51.333 16.834 -76 27.501s-47.334 23 -68.001 37l72 143c3.33301 -3.33301 12.333 -9.66602 27 -18.999s32.667 -18.666 54 -27.999s45.333 -17.666 72 -24.999s53.667 -11 81 -11c58 0 87 17.667 87 53c0 13.333 -4.33301 24.333 -13 33
s-20.667 16.5 -36 23.5s-33.333 13.5 -54 19.5l-68 20c-32.667 10 -61 20.833 -85 32.5s-44 25.167 -60 40.5s-27.833 33 -35.5 53s-11.5 43.333 -11.5 70c0 37.333 7 70.333 21 99s33 52.834 57 72.501s51.833 34.5 83.5 44.5s65.167 15 100.5 15
c25.333 0 50 -2.33301 74 -7s46.833 -10.667 68.5 -18s42.167 -15.666 61.5 -24.999s36.666 -18.666 51.999 -27.999z" />
    <glyph glyph-name="T" unicode="T" horiz-adv-x="622" 
d="M609 566h-216v-566h-164v566h-217v144h597v-144z" />
    <glyph glyph-name="U" unicode="U" horiz-adv-x="745" 
d="M372 140c28 0 51.6689 5.83203 71.002 17.499s35 27.167 47 46.5s20.5 41.5 25.5 66.5s7.5 50.5 7.5 76.5v363h164v-363c0 -49.333 -6.16699 -95.333 -18.5 -138s-31.333 -80 -57 -112s-58.334 -57.167 -98.001 -75.5s-86.834 -27.5 -141.501 -27.5
c-56.667 0 -105 9.66699 -145 29s-72.5 45.166 -97.5 77.499s-43.333 69.833 -55 112.5s-17.5 87.334 -17.5 134.001v363h164v-363c0 -27.333 2.66699 -53.333 8 -78s14 -46.667 26 -66s27.5 -34.666 46.5 -45.999s42.5 -17 70.5 -17z" />
    <glyph glyph-name="V" unicode="V" horiz-adv-x="672" 
d="M169 710l168 -504l165 504h173l-270 -710h-137l-272 710h173z" />
    <glyph glyph-name="W" unicode="W" horiz-adv-x="1056" 
d="M304 709h152l71 -227l73 227h151l-119 -330l72 -191l179 522h178l-283 -710h-138l-112 278l-113 -278h-137l-283 710h177l180 -522l70 191z" />
    <glyph glyph-name="X" unicode="X" horiz-adv-x="649" 
d="M170 710l155 -245l155 245h177l-246 -360l238 -350h-177l-147 235l-147 -235h-178l238 350l-246 360h178z" />
    <glyph glyph-name="Y" unicode="Y" horiz-adv-x="648" 
d="M170 710l153 -326l156 326h178l-252 -468v-242h-164v244l-249 466h178z" />
    <glyph glyph-name="Z" unicode="Z" horiz-adv-x="623" 
d="M27 123l369 443h-355v144h545v-123l-353 -443h357v-144h-563v123z" />
    <glyph glyph-name="bracketleft" unicode="[" horiz-adv-x="321" 
d="M67 -40v780h214v-127h-67v-526h67v-127h-214z" />
    <glyph glyph-name="backslash" unicode="\" horiz-adv-x="666" 
d="M203 710l435 -710h-176l-436 710h177z" />
    <glyph glyph-name="bracketright" unicode="]" horiz-adv-x="321" 
d="M40 -40v127h67v526h-67v127h215v-780h-215z" />
    <glyph glyph-name="asciicircum" unicode="^" horiz-adv-x="604" 
d="M38 303l198 407h133l197 -407h-130l-133 275l-137 -275h-128z" />
    <glyph glyph-name="underscore" unicode="_" horiz-adv-x="370" 
d="M5 -144v144h360v-144h-360z" />
    <glyph glyph-name="grave" unicode="`" horiz-adv-x="269" 
d="M46 730h145l52 -130l-101 -28z" />
    <glyph glyph-name="a" unicode="a" horiz-adv-x="590" 
d="M204 -10c-26 0 -50.167 4.16797 -72.5 12.501s-41.5 20 -57.5 35s-28.667 32.667 -38 53s-14 42.5 -14 66.5c0 26 5.5 49.667 16.5 71s26.5 39.666 46.5 54.999s43.667 27.333 71 36s57.666 13 90.999 13c22 0 43.333 -1.83301 64 -5.5s38.667 -9.16699 54 -16.5v24
c0 60.667 -35 91 -105 91c-28.667 0 -56 -4.83301 -82 -14.5s-53.333 -24.167 -82 -43.5l-47 100c34.667 22.667 70.667 39.667 108 51s77 17 119 17c79.333 0 140.666 -18.667 183.999 -56s65 -92 65 -164v-135c0 -16 3 -27.167 9 -33.5s16.667 -10.166 32 -11.499v-135
c-15.333 -3.33301 -29.5 -5.5 -42.5 -6.5s-24.5 -1.5 -34.5 -1.5c-29.333 0.666992 -51.666 6.66699 -66.999 18s-25 27.666 -29 48.999l-3 24c-23.333 -30 -51.166 -53 -83.499 -69s-66.5 -24 -102.5 -24zM251 105.001c17.333 0 34.166 2.99805 50.499 8.99805
s29.833 14 40.5 24c15.333 12 23 24.667 23 38v50c-14 5.33301 -29.167 9.5 -45.5 12.5s-31.5 4.5 -45.5 4.5c-29.333 0 -53.5 -6.66699 -72.5 -20s-28.5 -30.666 -28.5 -51.999c0 -19.333 7.33301 -35.166 22 -47.499s33.334 -18.5 56.001 -18.5z" />
    <glyph glyph-name="b" unicode="b" horiz-adv-x="639" 
d="M369 -10c-40 0 -74.833 8.50098 -104.5 25.501s-53.167 40.833 -70.5 71.5v-87h-140v730h160v-291c17.333 30 40.5 53.5 69.5 70.5s63.5 25.5 103.5 25.5c33.333 0 63.833 -7.16699 91.5 -21.5s51.5 -33.833 71.5 -58.5s35.667 -53.834 47 -87.501s17 -69.5 17 -107.5
s-6.16699 -73.5 -18.5 -106.5s-29.5 -61.667 -51.5 -86s-48 -43.333 -78 -57s-62.333 -20.5 -97 -20.5zM324 125.001c18.667 0 35.833 3.50098 51.5 10.501s29 16.5 40 28.5s19.5 26.167 25.5 42.5s9 34.166 9 53.499c0 18.667 -2.83301 36.5 -8.5 53.5
s-13.834 31.833 -24.501 44.5s-23.167 22.667 -37.5 30s-30.166 11 -47.499 11c-25.333 0 -48.5 -8.66699 -69.5 -26s-37.167 -39 -48.5 -65v-110c11.333 -22.667 27 -40.5 47 -53.5s41 -19.5 63 -19.5z" />
    <glyph glyph-name="c" unicode="c" horiz-adv-x="570" 
d="M24 263c0 36 6.33105 70.5 18.998 103.5s31 62 55 87s53.5 44.833 88.5 59.5s74.833 22 119.5 22c60.667 0 111.667 -12.833 153 -38.5s72.333 -59.167 93 -100.5l-156 -47c-20.667 33.333 -51 50 -91 50c-33.333 0 -61.166 -12.333 -83.499 -37s-33.5 -57.667 -33.5 -99
c0 -20.667 3 -39.5 9 -56.5s14.333 -31.5 25 -43.5s23.167 -21.333 37.5 -28s29.5 -10 45.5 -10c20 0 38.333 4.83301 55 14.5s29 22.167 37 37.5l156 -48c-19.333 -40.667 -50.166 -74 -92.499 -100s-93.833 -39 -154.5 -39c-44 0 -83.5 7.5 -118.5 22.5s-64.667 35 -89 60
s-42.833 54 -55.5 87s-19 67.5 -19 103.5z" />
    <glyph glyph-name="d" unicode="d" horiz-adv-x="660" 
d="M273 -10c-36 0 -69.168 6.83203 -99.501 20.499s-56.5 32.834 -78.5 57.501s-39.167 53.5 -51.5 86.5s-18.5 69.167 -18.5 108.5c0 38 5.66699 73.667 17 107s27.333 62.166 48 86.499s45.167 43.5 73.5 57.5s59.5 21 93.5 21c36 0 69 -8.66699 99 -26
s53 -40.666 69 -69.999v291h160v-550c0 -16 3 -27.167 9 -33.5s16.667 -10.166 32 -11.499v-135c-16.667 -3.33301 -31.167 -5.5 -43.5 -6.5s-23.5 -1.5 -33.5 -1.5c-56 1.33301 -88 23.666 -96 66.999l-3 28c-19.333 -32.667 -44.666 -57 -75.999 -73s-65 -24 -101 -24z
M315.999 124.999c22 0 43.001 6.50195 63.001 19.502s35.667 30.833 47 53.5v110c-10 26.667 -26.167 48.5 -48.5 65.5s-45.5 25.5 -69.5 25.5c-17.333 0 -33.166 -3.83301 -47.499 -11.5s-26.833 -17.834 -37.5 -30.501s-18.834 -27.334 -24.501 -44.001
s-8.5 -34.334 -8.5 -53.001c0 -39.333 11.667 -71.666 35 -96.999s53.666 -38 90.999 -38z" />
    <glyph glyph-name="e" unicode="e" horiz-adv-x="604" 
d="M306 -10c-44 0 -83.501 7.16797 -118.501 21.501s-64.667 33.833 -89 58.5s-42.833 53.167 -55.5 85.5s-19 66.166 -19 101.499c0 38 6.33301 73.833 19 107.5s31 63.167 55 88.5s53.5 45.333 88.5 60s74.833 22 119.5 22s84.334 -7.33301 119.001 -22s64 -34.5 88 -59.5
s42.167 -53.833 54.5 -86.5s18.5 -67 18.5 -103c0 -9.33301 -0.333008 -18.5 -1 -27.5s-1.66699 -16.833 -3 -23.5h-388c2.66699 -35.333 15.5 -62.166 38.5 -80.499s49.167 -27.5 78.5 -27.5c23.333 0 45.833 5.66699 67.5 17s36.167 26.666 43.5 45.999l136 -38
c-20.667 -41.333 -52.667 -75 -96 -101s-95.333 -39 -156 -39zM416.999 312.001c-3.33301 33.333 -15.334 59.668 -36.001 79.001s-46.334 29 -77.001 29c-31.333 0 -57.166 -9.83301 -77.499 -29.5s-32.166 -45.834 -35.499 -78.501h226z" />
    <glyph glyph-name="f" unicode="f" horiz-adv-x="395" 
d="M91 0l0.000976562 342.998h-67v121h67v61c0 32.667 4.33301 62.334 13 89.001s21 49.334 37 68.001s35.333 33 58 43s48 15 76 15c43.333 0 88.666 -10.333 135.999 -31l-29 -120c-10.667 4.66699 -22.5 8.5 -35.5 11.5s-25.167 4.5 -36.5 4.5
c-39.333 0 -59 -24.667 -59 -74v-67h122v-121h-122v-343h-160z" />
    <glyph glyph-name="g" unicode="g" horiz-adv-x="639" 
d="M258 -2c-34.667 0 -66.167 6.99902 -94.5 20.999s-52.666 33 -72.999 57s-36.166 52 -47.499 84s-17 66.333 -17 103c0 38.667 6 74.5 18 107.5s28.667 61.667 50 86s47 43.5 77 57.5s63 21 99 21c39.333 0 74 -8.5 104 -25.5s54 -40.5 72 -70.5v86h139v-489
c0 -40 -7.5 -76 -22.5 -108s-35.833 -59.167 -62.5 -81.5s-58.667 -39.5 -96 -51.5s-78.333 -18 -123 -18c-56.667 0 -105 9 -145 27s-75 44 -105 78l85 87c19.333 -22 43.5 -39.5 72.5 -52.5s59.833 -19.5 92.5 -19.5c19.333 0 37.666 2.66699 54.999 8
s32.666 13.5 45.999 24.5s23.833 25.333 31.5 43s11.5 38.834 11.5 63.501v51c-16 -29.333 -39.167 -51.5 -69.5 -66.5s-62.833 -22.5 -97.5 -22.5zM314 124.999c24.667 0 46.498 6.83203 65.498 20.499s34.167 31.167 45.5 52.5v110c-10.667 28 -27 50.167 -49 66.5
s-45.333 24.5 -70 24.5c-17.333 0 -33.166 -3.83301 -47.499 -11.5s-26.666 -18 -36.999 -31s-18.333 -28 -24 -45s-8.5 -34.5 -8.5 -52.5c0 -19.333 3.16699 -37.166 9.5 -53.499s15 -30.5 26 -42.5s24.167 -21.333 39.5 -28s32 -10 50 -10z" />
    <glyph glyph-name="h" unicode="h" horiz-adv-x="611" 
d="M561 0l-160.001 -0.000976562v295c0 34 -6.83301 59 -20.5 75s-32.167 24 -55.5 24c-9.33301 0 -19.5 -2.16699 -30.5 -6.5s-21.667 -10.666 -32 -18.999s-19.833 -18.166 -28.5 -29.499s-15.334 -24 -20.001 -38v-301h-160v730h160v-293
c19.333 31.333 44.833 55.5 76.5 72.5s66.834 25.5 105.501 25.5c35.333 0 63.833 -6.16699 85.5 -18.5s38.334 -28 50.001 -47s19.5 -40.333 23.5 -64s6 -46.834 6 -69.501v-336z" />
    <glyph glyph-name="i" unicode="i" 
d="M54 0v525h160v-525h-160zM54 585v145h160v-145h-160z" />
    <glyph glyph-name="j" unicode="j" 
d="M21 -202c-26 0 -51.001 4.16602 -75.001 12.499s-45.667 20.833 -65 37.5l67 109c6.66699 -7.33301 14.667 -12.666 24 -15.999s19 -5 29 -5c15.333 0 28 5 38 15s15 23.333 15 40v534h160v-522c0 -30 -4.83301 -57.667 -14.5 -83s-23.167 -47 -40.5 -65
s-37.666 -32 -60.999 -42s-49 -15 -77 -15zM53.999 584.999v145h160v-145h-160z" />
    <glyph glyph-name="k" unicode="k" horiz-adv-x="568" 
d="M407 0l-137 211l-56 -58v-153h-160v730h160v-423l178 218h170l-189 -226l204 -299h-170z" />
    <glyph glyph-name="l" unicode="l" horiz-adv-x="339" 
d="M53 730l160 -0.000976562v-534c0 -40 17.333 -60 52 -60c7.33301 0 15.833 1.33301 25.5 4s18.5 6 26.5 10l21 -129c-20 -9.33301 -43 -16.666 -69 -21.999s-50 -8 -72 -8c-46 0 -81.5 12 -106.5 36s-37.5 58.667 -37.5 104v599z" />
    <glyph glyph-name="m" unicode="m" horiz-adv-x="934" 
d="M884 0l-160.003 -0.00585938v295c0 34.667 -6.16699 59.834 -18.5 75.501s-28.833 23.5 -49.5 23.5c-21.333 0 -42.166 -8.66699 -62.499 -26s-35.166 -39.666 -44.499 -66.999v-301h-160v295c0 34.667 -6.16699 59.834 -18.5 75.501s-28.833 23.5 -49.5 23.5
c-21.333 0 -42.166 -8.5 -62.499 -25.5s-35.166 -39.5 -44.499 -67.5v-301h-160v525h144v-88c19.333 32 45.666 56.333 78.999 73s72 25 116 25c21.333 0 40.333 -2.66699 57 -8s30.834 -12.666 42.501 -21.999s21.334 -20.166 29.001 -32.499s13.167 -25.5 16.5 -39.5
c19.333 32.667 45.333 57.834 78 75.501s70 26.5 112 26.5c33.333 0 60.166 -6.16699 80.499 -18.5s36.166 -28.333 47.499 -48s18.833 -41.167 22.5 -64.5s5.5 -46 5.5 -68v-336z" />
    <glyph glyph-name="n" unicode="n" horiz-adv-x="611" 
d="M561 0l-159.998 -0.00292969v295c0 34.667 -6.5 59.834 -19.5 75.501s-30.167 23.5 -51.5 23.5c-11.333 0 -22.833 -2.33301 -34.5 -7s-22.667 -11.167 -33 -19.5s-19.833 -18.166 -28.5 -29.499s-15.334 -23.666 -20.001 -36.999v-301h-160v525h144v-88
c19.333 31.333 46.666 55.5 81.999 72.5s76 25.5 122 25.5c34 0 61.5 -6.16699 82.5 -18.5s37.167 -28.333 48.5 -48s18.833 -41.167 22.5 -64.5s5.5 -46 5.5 -68v-336z" />
    <glyph glyph-name="o" unicode="o" horiz-adv-x="609" 
d="M305 -10c-44.667 0 -84.501 7.33301 -119.501 22s-64.5 34.5 -88.5 59.5s-42.167 54 -54.5 87s-18.5 67.5 -18.5 103.5s6.16699 70.5 18.5 103.5s30.5 62 54.5 87s53.5 45 88.5 60s74.833 22.5 119.5 22.5s84.334 -7.5 119.001 -22.5s64 -35 88 -60s42.333 -54 55 -87
s19 -67.5 19 -103.5s-6.16699 -70.5 -18.5 -103.5s-30.5 -62 -54.5 -87s-53.5 -44.833 -88.5 -59.5s-74.833 -22 -119.5 -22zM187.999 262c0 -41.333 10.999 -74.5 32.999 -99.5s50 -37.5 84 -37.5c16.667 0 32 3.33301 46 10s26.167 16 36.5 28s18.5 26.5 24.5 43.5
s9 35.5 9 55.5c0 41.333 -11 74.5 -33 99.5s-49.667 37.5 -83 37.5c-16.667 0 -32.167 -3.33301 -46.5 -10s-26.666 -16 -36.999 -28s-18.5 -26.5 -24.5 -43.5s-9 -35.5 -9 -55.5z" />
    <glyph glyph-name="p" unicode="p" horiz-adv-x="638" 
d="M387 -10c-40 0 -74.667 8.33105 -104 24.998s-52.333 40 -69 70v-298h-160v738h140v-85c19.333 30 43.333 53.333 72 70s63 25 103 25c35.333 0 68 -7 98 -21s55.833 -33.167 77.5 -57.5s38.667 -53 51 -86s18.5 -68.5 18.5 -106.5
c0 -39.333 -5.66699 -75.666 -17 -108.999s-27.166 -62.166 -47.499 -86.499s-44.333 -43.5 -72 -57.5s-57.834 -21 -90.501 -21zM332 124.998c17.333 0 33.1641 3.83301 47.4971 11.5s26.833 17.834 37.5 30.501s18.834 27.5 24.501 44.5s8.5 34.833 8.5 53.5
c0 19.333 -3.16699 37.166 -9.5 53.499s-15 30.5 -26 42.5s-24.167 21.333 -39.5 28s-32.333 10 -51 10c-22 0 -43 -6.5 -63 -19.5s-35.667 -30.5 -47 -52.5v-108c10.667 -26.667 26.834 -49 48.501 -67s44.834 -27 69.501 -27z" />
    <glyph glyph-name="q" unicode="q" horiz-adv-x="638" 
d="M252 -10c-33.333 0 -63.834 6.99902 -91.501 20.999s-51.5 33.333 -71.5 58s-35.667 53.667 -47 87s-17 69.333 -17 108c0 38 6.16699 73.5 18.5 106.5s29.333 61.667 51 86s47.334 43.5 77.001 57.5s62.167 21 97.5 21c40 0 74.5 -8.66699 103.5 -26
s53.167 -40.666 72.5 -69.999v86h139v-550c0 -16 3 -27.167 9 -33.5s16.667 -9.83301 32 -10.5v-136c-14 -2.66699 -29.167 -4.66699 -45.5 -6s-30.833 -2 -43.5 -2c-15.333 0 -29.833 2.5 -43.5 7.5s-25.5 12 -35.5 21s-18 19.833 -24 32.5s-9 26.667 -9 42v195
c-36 -63.333 -93.333 -95 -172 -95zM312.999 124.999c23.333 0 44.334 6.50293 63.001 19.5029s34.667 30.167 48 51.5v111c-4 12.667 -10 24.667 -18 36s-17.333 21.166 -28 29.499s-22 14.833 -34 19.5s-24 7 -36 7c-17.333 0 -33.333 -3.83301 -48 -11.5
s-27.334 -17.834 -38.001 -30.501s-19 -27.334 -25 -44.001s-9 -34.334 -9 -53.001c0 -39.333 11.5 -71.666 34.5 -96.999s53.167 -38 90.5 -38z" />
    <glyph glyph-name="r" unicode="r" horiz-adv-x="401" 
d="M387 388c-38.667 -0.666992 -73.499 -7 -104.499 -19s-53.833 -30 -68.5 -54v-315h-160v525h147v-106c18.667 35.333 42.167 62.833 70.5 82.5s58.5 30.167 90.5 31.5c13.333 0 21.666 -0.333008 24.999 -1v-144z" />
    <glyph glyph-name="s" unicode="s" horiz-adv-x="517" 
d="M274 -10c-22 0 -44.8359 1.66699 -68.5029 5s-47.167 7.83301 -70.5 13.5s-45.666 12.667 -66.999 21s-40 17.5 -56 27.5l63 108c34.667 -20 68.334 -35.333 101.001 -46s64 -16 94 -16c23.333 0 41.166 3.66699 53.499 11s18.5 18 18.5 32s-8.33301 24.833 -25 32.5
s-45.334 16.834 -86.001 27.501c-35.333 9.33301 -65.333 18.666 -90 27.999s-44.5 19.833 -59.5 31.5s-25.833 24.834 -32.5 39.501s-10 32 -10 52c0 26.667 5.5 51 16.5 73s26.167 40.667 45.5 56s42.166 27.333 68.499 36s55.166 13 86.499 13
c36.667 0 74.167 -5.5 112.5 -16.5s75.833 -26.167 112.5 -45.5l-63 -101c-32.667 18 -61.834 31.167 -87.501 39.5s-50.5 12.5 -74.5 12.5c-20 0 -36.5 -3.5 -49.5 -10.5s-19.5 -18.167 -19.5 -33.5c0 -7.33301 1.66699 -13.5 5 -18.5s8.83301 -9.66699 16.5 -14
s17.834 -8.33301 30.501 -12s28.334 -7.83398 47.001 -12.501c38.667 -10 71.334 -20 98.001 -30s48.334 -21.167 65.001 -33.5s28.667 -26.5 36 -42.5s11 -35 11 -57c0 -26 -5.16699 -49.5 -15.5 -70.5s-25.166 -38.833 -44.499 -53.5s-42.666 -26 -69.999 -34
s-58 -12 -92 -12z" />
    <glyph glyph-name="t" unicode="t" horiz-adv-x="401" 
d="M394 28c-22 -9.33301 -47 -18 -75 -26s-56.667 -12 -86 -12c-20 0 -38.833 2.5 -56.5 7.5s-33.167 13 -46.5 24s-23.833 25.5 -31.5 43.5s-11.5 39.667 -11.5 65v274h-67v121h67v167h160v-167h107v-121h-107v-219c0 -17.333 4.5 -29.833 13.5 -37.5
s20.167 -11.5 33.5 -11.5c11.333 0 23.333 2 36 6s24 8.33301 34 13z" />
    <glyph glyph-name="u" unicode="u" horiz-adv-x="633" 
d="M214 -10c-53.333 0 -94.001 16.832 -122.001 50.499s-42 83.167 -42 148.5v336h160v-301c0 -32 6.33301 -56.5 19 -73.5s30.667 -25.5 54 -25.5c21.333 0 42 5.66699 62 17s37.667 31 53 59v324h160v-345c0 -16 3 -27.167 9 -33.5s16.667 -10.166 32 -11.499v-135
c-16.667 -3.33301 -31.167 -5.5 -43.5 -6.5s-23.166 -1.5 -32.499 -1.5c-56 0.666992 -88.333 23 -97 67l-3 32c-24 -34.667 -53.833 -60.167 -89.5 -76.5s-75.5 -24.5 -119.5 -24.5z" />
    <glyph glyph-name="v" unicode="v" horiz-adv-x="549" 
d="M188 0l-186 525h164l115 -397l116 397h150l-186 -525h-173z" />
    <glyph glyph-name="w" unicode="w" horiz-adv-x="856" 
d="M706 525h151l-217 -525h-131l-81 216l-80 -216h-131l-217 525h151l142 -377l49 143l-92 234h128l50 -158l51 158h128l-93 -234l50 -143z" />
    <glyph glyph-name="x" unicode="x" horiz-adv-x="539" 
d="M165 525l95 -148l10 -19l9 19l95 148h164l-182 -263l185 -262h-163l-99 147l-9 19l-9 -19l-99 -147h-164l185 262l-181 263h163z" />
    <glyph glyph-name="y" unicode="y" horiz-adv-x="545" 
d="M52 -79c14.667 -4.66699 28.1699 -7.99902 40.5029 -9.99902s23.166 -3 32.499 -3c17.333 0 31.5 6.83301 42.5 20.5s20.167 37.5 27.5 71.5l-199 525h164l123 -388l105 388h149l-201 -610c-14.667 -44 -39.5 -79.167 -74.5 -105.5s-75.5 -39.833 -121.5 -40.5
c-14.667 0 -29.334 1.16699 -44.001 3.5s-29.334 6.16602 -44.001 11.499v137z" />
    <glyph glyph-name="z" unicode="z" horiz-adv-x="492" 
d="M23 96l268 318h-254v111h422v-96l-267 -318h273v-111h-442v96z" />
    <glyph glyph-name="braceleft" unicode="{" horiz-adv-x="328" 
d="M232 613l-0.000976562 -181c0 -15.333 -3.66699 -28.833 -11 -40.5s-16.333 -22.167 -27 -31.5c10 -9.33301 18.833 -19.833 26.5 -31.5s11.5 -25.167 11.5 -40.5v-192h55v-127h-176c-4 0 -8.83301 2 -14.5 6s-8.5 12 -8.5 24v235c0 19.333 -5.66699 35.333 -17 48
s-24 20.667 -38 24v110c6.66699 0 13.334 2.16699 20.001 6.5s12.667 9.83301 18 16.5s9.5 14.167 12.5 22.5s4.5 16.5 4.5 24.5v224c0 12 2.83301 20 8.5 24s10.5 6 14.5 6h176v-127h-55z" />
    <glyph glyph-name="bar" unicode="|" horiz-adv-x="264" 
d="M65 -130v905h135v-905h-135z" />
    <glyph glyph-name="braceright" unicode="}" horiz-adv-x="328" 
d="M41 613v127h176c3.33301 0 8 -2 14 -6s9 -12 9 -24v-224c0 -8 1.5 -16.167 4.5 -24.5s7 -15.833 12 -22.5s10.667 -12.167 17 -16.5s13.166 -6.5 20.499 -6.5v-110c-13.333 -3.33301 -25.666 -11.333 -36.999 -24s-17 -28.667 -17 -48v-235c0 -12 -2.83301 -20 -8.5 -24
s-10.5 -6 -14.5 -6h-176v127h55v192c0 15.333 3.66699 28.833 11 40.5s16.333 22.167 27 31.5c-10.667 9.33301 -19.667 19.833 -27 31.5s-11 25.167 -11 40.5v181h-55z" />
    <glyph glyph-name="asciitilde" unicode="~" horiz-adv-x="584" 
d="M50 222c0 6.66699 2.50195 18.0029 7.50195 34.0029s13.333 32.333 25 49s27.167 31.167 46.5 43.5s43.666 18.5 72.999 18.5c18.667 0 35.834 -2.83301 51.501 -8.5s30.5 -11.667 44.5 -18s28 -12.333 42 -18s28.667 -8.5 44 -8.5c14 0 25.5 2.5 34.5 7.5
s16 10.5 21 16.5s8.5 11.667 10.5 17s3 8.66602 3 9.99902h85c0 -4 -2.5 -13.833 -7.5 -29.5s-13.5 -31.834 -25.5 -48.501s-27.833 -31.667 -47.5 -45s-44.5 -20 -74.5 -20c-18.667 0 -35.834 2.66699 -51.501 8s-30.667 11.166 -45 17.499s-28.5 12.166 -42.5 17.499
s-28.333 8 -43 8s-26.334 -2.5 -35.001 -7.5s-15.167 -10.667 -19.5 -17s-7 -12.166 -8 -17.499s-1.5 -8.33301 -1.5 -9h-87v0z" />
    <glyph glyph-name="uni00A0" unicode="&#xa0;" horiz-adv-x="233" 
 />
    <glyph glyph-name="exclamdown" unicode="&#xa1;" horiz-adv-x="307" 
d="M234 429v-435h-160v435h160zM234 711v-166h-160v166h160z" />
    <glyph glyph-name="cent" unicode="&#xa2;" horiz-adv-x="606" 
d="M278 -120l0.000976562 111.002c-35.333 2.66699 -67.5 12.167 -96.5 28.5s-54.167 36.833 -75.5 61.5s-37.833 52.334 -49.5 83.001s-17.5 62 -17.5 94c0 34 5.16699 66.167 15.5 96.5s25.5 57.666 45.5 81.999s44.833 45 74.5 62s64.167 28.5 103.5 34.5v112h69v-112
c46 -1.33301 88.5 -13.333 127.5 -36s70.167 -56.334 93.5 -101.001l-155 -47c-7.33301 12.667 -17 23 -29 31s-24.333 12.667 -37 14v-265c14.667 4 28.167 10.167 40.5 18.5s21.166 18.166 26.499 29.499l156 -48c-10.667 -23.333 -25.167 -43.666 -43.5 -60.999
s-38 -31.833 -59 -43.5s-42.167 -20.334 -63.5 -26.001s-40.333 -8.5 -57 -8.5v-110h-69zM204.001 258.002c0 -26 6.5 -50.167 19.5 -72.5s31.167 -38.5 54.5 -48.5v250c-23.333 -7.33301 -41.5 -23 -54.5 -47s-19.5 -51.333 -19.5 -82z" />
    <glyph glyph-name="sterling" unicode="&#xa3;" horiz-adv-x="564" 
d="M57 384h64l-32.5 73.5c-10.333 24.333 -15.5 49.833 -15.5 76.5c0 25.333 5.66699 49 17 71s26.666 41.167 45.999 57.5s42.166 29.166 68.499 38.499s54.5 14 84.5 14c42 0 82.167 -9.16699 120.5 -27.5s70.833 -44.166 97.5 -77.499l-82 -98
c-17.333 21.333 -38.666 39 -63.999 53s-49.666 21 -72.999 21c-21.333 0 -38.833 -6.33301 -52.5 -19s-20.5 -29.334 -20.5 -50.001s5.66699 -41.667 17 -63s22 -44.666 32 -69.999h187v-119h-167c-2.66699 -24.667 -10 -48.167 -22 -70.5s-30 -46.166 -54 -71.499
c15.333 5.33301 29.166 9 41.499 11s24.166 3 35.499 3c22.667 0 44.834 -2.66699 66.501 -8s43.834 -8 66.501 -8c11.333 0 22.333 1.16699 33 3.5s22.667 5.83301 36 10.5l39 -118c-15.333 -9.33301 -33.833 -17 -55.5 -23s-42.167 -9 -61.5 -9
c-15.333 0 -30.833 1.66699 -46.5 5l-48 10.5l-49 10.5c-16.333 3.33301 -32.5 5 -48.5 5c-18.667 0 -40 -2.33301 -64 -7s-47.667 -10.667 -71 -18l-34 114c28.667 20.667 51.667 45.167 69 73.5s27.333 57.166 30 86.499h-90v119z" />
    <glyph glyph-name="yen" unicode="&#xa5;" horiz-adv-x="726" 
d="M534 416h69v-103h-122l-38 -71v-31h161v-103h-161v-108h-163v108h-160v103h160v33l-37 69h-122v103h70l-160 294h177l153 -326l156 326h179z" />
    <glyph glyph-name="brokenbar" unicode="&#xa6;" 
d="M202 260v-390h-135v390h135zM202 775v-390h-135v390h135z" />
    <glyph glyph-name="section" unicode="&#xa7;" horiz-adv-x="541" 
d="M471 223c8.66699 -9.33301 15.835 -22.1631 21.502 -38.4961s8.5 -37.166 8.5 -62.499c0 -38.667 -7.5 -71.334 -22.5 -98.001s-34 -48.334 -57 -65.001s-48 -28.667 -75 -36s-52.167 -11 -75.5 -11c-27.333 0 -53 4 -77 12s-45.5 17.667 -64.5 29
s-35.333 23.166 -49 35.499s-24.5 23.166 -32.5 32.499l102 98c19.333 -20 38.166 -34.167 56.499 -42.5s37.166 -12.5 56.499 -12.5s36.166 4.33301 50.499 13s21.5 21.667 21.5 39c0 8.66699 -1.83301 15.667 -5.5 21s-8.5 9.33301 -14.5 12s-12.667 4.5 -20 5.5
s-14.333 1.83301 -21 2.5c-70.667 5.33301 -123.667 24.666 -159 57.999s-53 75.333 -53 126c0 19.333 2 34.5 6 45.5l9 24.5c-7.33301 8 -15.166 21.5 -23.499 40.5s-12.5 41.167 -12.5 66.5c0 26 5.5 50.833 16.5 74.5s26.167 44.5 45.5 62.5s42.166 32.5 68.499 43.5
s55.166 16.5 86.499 16.5c30.667 0 57.834 -4.66699 81.501 -14s44.667 -20.833 63 -34.5s33.833 -28.334 46.5 -44.001s23.334 -29.5 32.001 -41.5l-122 -58c-8.66699 14.667 -20.667 26.667 -36 36s-33.666 14 -54.999 14c-20.667 0 -36.834 -4.83301 -48.501 -14.5
s-17.5 -22.167 -17.5 -37.5c0 -10 1.66699 -18 5 -24s8 -10.667 14 -14s13 -5.66602 21 -6.99902s16.333 -2 25 -2c25.333 -0.666992 51 -4 77 -10s49.667 -15.667 71 -29s38.833 -31 52.5 -53s20.5 -49 20.5 -81c0 -19.333 -2 -35.833 -6 -49.5s-7.66699 -23.167 -11 -28.5
zM217.001 319.003c0 -14.667 4 -25.332 12 -31.999s17.5 -11.5 28.5 -14.5s22.667 -4.83301 35 -5.5s22.5 -2.33398 30.5 -5.00098c4.66699 3.33301 8.16699 8.33301 10.5 15s3.5 13 3.5 19c0 9.33301 -2 17.166 -6 23.499s-9.16699 11.5 -15.5 15.5
s-13.166 6.83301 -20.499 8.5s-14.333 2.5 -21 2.5c-9.33301 0 -18.333 0.833008 -27 2.5s-14.334 3.16699 -17.001 4.5c-8.66699 -7.33301 -13 -18.666 -13 -33.999z" />
    <glyph glyph-name="dieresis" unicode="&#xa8;" horiz-adv-x="508" 
d="M83 593v129h132v-129h-132zM293 593v129h132v-129h-132z" />
    <glyph glyph-name="copyright" unicode="&#xa9;" horiz-adv-x="845" 
d="M419 -7c-54 0 -104.167 9.16699 -150.5 27.5s-86.333 43.666 -120 75.999s-60 70.5 -79 114.5s-28.5 92 -28.5 144c0 51.333 9.5 99 28.5 143s45.333 82 79 114s73.667 57.167 120 75.5s96.5 27.5 150.5 27.5c55.333 0 106.5 -9.16699 153.5 -27.5
s87.667 -43.5 122 -75.5s61.166 -70 80.499 -114s29 -91.667 29 -143c0 -52 -9.66699 -100 -29 -144s-46.166 -82.167 -80.499 -114.5s-75 -57.666 -122 -75.999s-98.167 -27.5 -153.5 -27.5zM419 49c45.333 0 87.833 7.49902 127.5 22.499s74 35.833 103 62.5
s51.833 58.667 68.5 96s25 78.666 25 123.999c0 42.667 -8.16699 82.5 -24.5 119.5s-39 69.333 -68 97s-63.167 49.334 -102.5 65.001s-82.333 23.5 -129 23.5c-45.333 0 -87.333 -7.83301 -126 -23.5s-72.167 -37.167 -100.5 -64.5s-50.5 -59.5 -66.5 -96.5
s-24 -76.833 -24 -119.5s8 -82.667 24 -120s38.167 -69.666 66.5 -96.999s61.833 -49 100.5 -65s80.667 -24 126 -24zM428 113.999c-40 0 -76.1689 6.33691 -108.502 19.0039s-59.666 29.834 -81.999 51.501s-39.5 47 -51.5 76s-18 60.167 -18 93.5
c0 31.333 5.5 61.5 16.5 90.5s27.333 54.667 49 77s48.667 40.166 81 53.499s69.833 20 112.5 20c56.667 0 104.834 -12.333 144.501 -37s69.167 -57.334 88.5 -98.001l-155 -48c-9.33301 17.333 -21 29.666 -35 36.999s-28.667 11 -44 11c-28 0 -50.667 -10 -68 -30
s-26 -45.333 -26 -76c0 -16.667 2.66699 -31.5 8 -44.5s12.5 -24 21.5 -33s19.167 -15.833 30.5 -20.5s23 -7 35 -7c16 0 31.167 4.16699 45.5 12.5s25.5 20.166 33.5 35.499l156 -47c-9.33301 -18.667 -21.166 -36.334 -35.499 -53.001s-31.333 -31.167 -51 -43.5
s-41.834 -22 -66.501 -29s-51.667 -10.5 -81 -10.5z" />
    <glyph glyph-name="ordfeminine" unicode="&#xaa;" horiz-adv-x="448" 
d="M158 336c-17.333 0 -33.332 3 -47.999 9s-27.5 14.167 -38.5 24.5s-19.5 22.5 -25.5 36.5s-9 29.333 -9 46c0 18 3.66699 34.5 11 49.5s17.666 27.833 30.999 38.5s29.166 19 47.499 25s38.5 9 60.5 9c14.667 0 28.667 -1.16699 42 -3.5s24.666 -6.16602 33.999 -11.499
v15c0 41.333 -22.333 62 -67 62c-19.333 0 -37.5 -3.33301 -54.5 -10s-35.167 -16.667 -54.5 -30l-33 71c46 31.333 97 47 153 47c54 0 95.667 -13 125 -39s44 -64 44 -114v-89c0 -11.333 2 -19.333 6 -24s11.333 -7.33398 22 -8.00098v-97c-10 -2 -19.667 -3.5 -29 -4.5
s-17.333 -1.5 -24 -1.5c-39.333 0.666992 -61.666 16.667 -66.999 48l-3 16c-15.333 -21.333 -33.666 -37.5 -54.999 -48.5s-44 -16.5 -68 -16.5zM192.001 419c10 0 20.167 1.99902 30.5 5.99902s18.833 9 25.5 15c10 6.66699 15 15.334 15 26.001v33
c-8 4 -17.167 7 -27.5 9s-19.833 3 -28.5 3c-18.667 0 -34 -4.5 -46 -13.5s-18 -20.833 -18 -35.5c0 -12 4.66699 -22.167 14 -30.5s21 -12.5 35 -12.5z" />
    <glyph glyph-name="guillemotleft" unicode="&#xab;" horiz-adv-x="677" 
d="M34 293l269 193v-129l-143 -98l143 -91v-129l-269 178v76zM352 293l270 193v-129l-143 -98l143 -91v-129l-270 178v76z" />
    <glyph glyph-name="logicalnot" unicode="&#xac;" horiz-adv-x="625" 
d="M563 415v-317h-135v173h-372v144h507z" />
    <glyph glyph-name="uni00AD" unicode="&#xad;" horiz-adv-x="615" 
d="M54 203v144h507v-144h-507z" />
    <glyph glyph-name="registered" unicode="&#xae;" horiz-adv-x="845" 
d="M420 -7c-54.667 0 -105.167 9.16699 -151.5 27.5s-86.333 43.666 -120 75.999s-60 70.5 -79 114.5s-28.5 92 -28.5 144c0 51.333 9.5 99 28.5 143s45.333 82 79 114s73.667 57.167 120 75.5s96.833 27.5 151.5 27.5s105.5 -9.16699 152.5 -27.5s87.667 -43.5 122 -75.5
s61.166 -70 80.499 -114s29 -91.667 29 -143c0 -52 -9.66699 -100 -29 -144s-46.166 -82.167 -80.499 -114.5s-75 -57.666 -122 -75.999s-97.833 -27.5 -152.5 -27.5zM421 48c44.667 0 86.5 7.66797 125.5 23.001s72.833 36.5 101.5 63.5s51.167 59.167 67.5 96.5
s24.5 78 24.5 122c0 42.667 -8 82.667 -24 120s-38.167 69.666 -66.5 96.999s-62 49 -101 65s-81.5 24 -127.5 24s-88.333 -8 -127 -24s-71.834 -37.667 -99.501 -65s-49.334 -59.5 -65.001 -96.5s-23.5 -76.833 -23.5 -119.5s7.83301 -82.5 23.5 -119.5
s37.334 -69.333 65.001 -97s60.834 -49.5 99.501 -65.5s81 -24 127 -24zM255 574.001h196.999c20.667 0 39.667 -4.33301 57 -13s32.333 -20 45 -34s22.5 -29.833 29.5 -47.5s10.5 -35.5 10.5 -53.5c0 -26 -6.66699 -50.5 -20 -73.5s-30.666 -40.167 -51.999 -51.5l100 -161
h-125l-87 140h-43v-140h-112v434zM440.999 376.001c12.667 0 22.999 4 30.999 12s12 20.667 12 38c0 18.667 -4.66699 31.667 -14 39s-19.666 11 -30.999 11h-72v-100h74z" />
    <glyph glyph-name="macron" unicode="&#xaf;" horiz-adv-x="428" 
d="M62 621v97h304v-97h-304z" />
    <glyph glyph-name="degree" unicode="&#xb0;" horiz-adv-x="295" 
d="M37 618c0 30 10.333 55.168 31 75.501s47 30.5 79 30.5c32.667 0 59.167 -10.167 79.5 -30.5s30.5 -45.5 30.5 -75.5c0 -34.667 -10.167 -62.334 -30.5 -83.001s-46.833 -31 -79.5 -31c-32 0 -58.333 10.5 -79 31.5s-31 48.5 -31 82.5zM122 638.001
c-2.66699 -3.33301 -4.99902 -6.83398 -6.99902 -10.501s-3 -8.16699 -3 -13.5c0 -4.66699 1 -9.16699 3 -13.5s4.33301 -7.83301 7 -10.5c7.33301 -7.33301 15.666 -11 24.999 -11c10.667 0 19 3.66699 25 11c3.33301 2.66699 5.83301 6.33398 7.5 11.001s2.5 9 2.5 13
c0 9.33301 -3.33301 17.333 -10 24c-6 6.66699 -14.333 10 -25 10c-10 0 -18.333 -3.33301 -25 -10z" />
    <glyph glyph-name="plusminus" unicode="&#xb1;" horiz-adv-x="476" 
d="M55 16v127h366v-127h-366zM421 445v-127h-111v-121h-143v121h-112v127h112v121h143v-121h111z" />
    <glyph glyph-name="twosuperior" unicode="&#xb2;" horiz-adv-x="428" 
d="M29 296c0 28 2.16895 52.334 6.50195 73.001s11.5 38.834 21.5 54.501s23.5 29.667 40.5 42s38.167 23.833 63.5 34.5l47 19c15.333 6 29.166 12.5 41.499 19.5s22.333 14.833 30 23.5s11.5 19 11.5 31c0 16.667 -7 28.667 -21 36s-33.333 11 -58 11
c-28 0 -52.333 -4.83301 -73 -14.5s-37 -20.167 -49 -31.5l-59 68c12.667 16 35.667 31.5 69 46.5s75 22.5 125 22.5c56 0 98.667 -12 128 -36s44 -58.333 44 -103c0 -22 -4.33301 -40.833 -13 -56.5s-19.334 -28.834 -32.001 -39.501s-26.667 -19.167 -42 -25.5
s-29.333 -11.5 -42 -15.5c-57.333 -16.667 -86 -39.334 -86 -68.001h200v-91h-353z" />
    <glyph glyph-name="threesuperior" unicode="&#xb3;" horiz-adv-x="415" 
d="M193 289c-42 0 -77.5 6.33301 -106.5 19s-49.167 31.667 -60.5 57l50 70c1.33301 -2.66699 4.66602 -6.83398 9.99902 -12.501s12.833 -11.5 22.5 -17.5s21.5 -11.167 35.5 -15.5s30 -6.5 48 -6.5c26 0 48.5 3.5 67.5 10.5s28.5 18.167 28.5 33.5
c0 17.333 -13.167 29.833 -39.5 37.5s-62.5 11.5 -108.5 11.5h-25v85h24c40 0 72.333 3.5 97 10.5s37 19.167 37 36.5c0 6.66699 -2.5 12.334 -7.5 17.001s-11.167 8.5 -18.5 11.5s-15.5 5.16699 -24.5 6.5s-17.5 2 -25.5 2c-26.667 0 -48.667 -4.33301 -66 -13
s-32.666 -20 -45.999 -34l-59 75c8 9.33301 18.167 17.666 30.5 24.999s26 13.5 41 18.5s31 8.66699 48 11s33.833 3.5 50.5 3.5c25.333 0 48.833 -3 70.5 -9s40.334 -14.333 56.001 -25s28 -23.167 37 -37.5s13.5 -29.833 13.5 -46.5
c0 -23.333 -8.66699 -42.666 -26 -57.999s-41 -25.666 -71 -30.999c33.333 -4.66699 59.5 -17.334 78.5 -38.001s28.5 -45 28.5 -73c0 -22 -5.5 -40.833 -16.5 -56.5s-25.333 -28.5 -43 -38.5s-37.834 -17.333 -60.501 -22s-46 -7 -70 -7z" />
    <glyph glyph-name="acute" unicode="&#xb4;" horiz-adv-x="269" 
d="M148 572l-102 28l52 130h145z" />
    <glyph glyph-name="mu" unicode="&#xb5;" horiz-adv-x="652" 
d="M66 525h160v-301c0 -32 6.33301 -56.5 19 -73.5s32 -25.5 58 -25.5c18.667 0 38 5.66699 58 17s37.667 31 53 59v324h160v-345c0 -16 3 -27.167 9 -33.5s16.667 -10.166 32 -11.499v-135c-16.667 -3.33301 -31.167 -5.5 -43.5 -6.5s-23.5 -1.5 -33.5 -1.5
c-56 1.33301 -88 23.666 -96 66.999l-3 32c-4 -10 -11 -20.833 -21 -32.5s-21.5 -22.5 -34.5 -32.5s-27.333 -18.5 -43 -25.5s-31.5 -10.5 -47.5 -10.5c-12 0 -22.667 1.83301 -32 5.5s-17.166 8 -23.499 13s-11.333 10.333 -15 16s-5.83398 10.167 -6.50098 13.5l10 -251
h-160v738z" />
    <glyph glyph-name="paragraph" unicode="&#xb6;" horiz-adv-x="674" 
d="M35 451c0 82.667 24.5 146.5 73.5 191.5s118.5 67.5 208.5 67.5h316v-119h-70v-671h-135v279h-42v-279h-135v279c-32.667 0 -62.167 6 -88.5 18s-49 29 -68 51s-33.667 48.5 -44 79.5s-15.5 65.5 -15.5 103.5zM167 455c0 -40 8.16797 -72.168 24.501 -96.501
s36.166 -38.166 59.499 -41.499v274c-26 -2 -46.5 -15.5 -61.5 -40.5s-22.5 -56.833 -22.5 -95.5zM428.001 590.999h-42v-274h42v274z" />
    <glyph glyph-name="periodcentered" unicode="&#xb7;" horiz-adv-x="238" 
d="M54 240v166h130v-166h-130z" />
    <glyph glyph-name="cedilla" unicode="&#xb8;" horiz-adv-x="343" 
d="M51 -127c7.33301 -4.66699 19.667 -9.16602 37 -13.499s35 -6.5 53 -6.5c16 0 29.333 2.33301 40 7s16 13 16 25c0 11.333 -5 19.5 -15 24.5s-23 7.5 -39 7.5c-14 0 -28.833 -1.33301 -44.5 -4s-27.167 -5 -34.5 -7l62 126l60 -18l-36 -52c8.66699 2 18.667 3 30 3
c24 0 45 -5.83301 63 -17.5s27 -30.5 27 -56.5c0 -26.667 -11.333 -49.167 -34 -67.5s-58 -27.5 -106 -27.5c-23.333 0 -44 2.16699 -62 6.5s-33.667 9.16602 -47 14.499z" />
    <glyph glyph-name="onesuperior" unicode="&#xb9;" horiz-adv-x="309" 
d="M288 389l-0.000976562 -92h-241v92h77v243c-3.33301 -4.66699 -8.66602 -10 -15.999 -16s-15.333 -11.667 -24 -17s-17.667 -9.83301 -27 -13.5s-18 -5.5 -26 -5.5v93c10 0 20.5 3 31.5 9s21 12.5 30 19.5s16.5 13.5 22.5 19.5s9 9.33301 9 10h95v-342h69z" />
    <glyph glyph-name="ordmasculine" unicode="&#xba;" horiz-adv-x="441" 
d="M220 336c-30 0 -56.667 5.16699 -80 15.5s-43 24.166 -59 41.499s-28.167 37.333 -36.5 60s-12.5 46.667 -12.5 72s4.16699 49.333 12.5 72s20.5 42.667 36.5 60s35.667 31.166 59 41.499s50 15.5 80 15.5s56.833 -5.16699 80.5 -15.5s43.5 -24.166 59.5 -41.499
s28.167 -37.333 36.5 -60s12.5 -46.667 12.5 -72s-4.16699 -49.333 -12.5 -72s-20.5 -42.667 -36.5 -60s-35.833 -31.166 -59.5 -41.499s-50.5 -15.5 -80.5 -15.5zM147 525c0 -28 6.83301 -50.333 20.5 -67s31.167 -25 52.5 -25s38.833 8.33301 52.5 25s20.5 39 20.5 67
s-6.83301 50.333 -20.5 67s-31.167 25 -52.5 25s-38.833 -8.33301 -52.5 -25s-20.5 -39 -20.5 -67z" />
    <glyph glyph-name="guillemotright" unicode="&#xbb;" horiz-adv-x="677" 
d="M643 217l-270 -178v129l144 91l-144 98v129l270 -193v-76zM324 217l-270 -178v129l144 91l-144 98v129l270 -193v-76z" />
    <glyph glyph-name="onequarter" unicode="&#xbc;" horiz-adv-x="971" 
d="M780 1v88h-218v91l247 251h64v-251h62v-91h-62v-88h-93zM650 180h134v138zM298 389l-0.000976562 -92h-241v92h77v243c-3.33301 -4.66699 -8.66602 -10 -15.999 -16s-15.333 -11.667 -24 -17s-17.667 -9.83301 -27 -13.5s-18 -5.5 -26 -5.5v93c10 0 20.5 3 31.5 9
s21 12.5 30 19.5s16.5 13.5 22.5 19.5s9 9.33301 9 10h95v-342h69zM190.999 56l282 324l256 339l72 -64l-273 -316l-266 -348z" />
    <glyph glyph-name="onehalf" unicode="&#xbd;" horiz-adv-x="993" 
d="M613 0c0 28 2.00293 52.3359 6.00293 73.0029s10.667 38.834 20 54.501s22 29.667 38 42s35.667 23.833 59 34.5l43.5 19c14.333 6 27.166 12.5 38.499 19.5s20.5 14.833 27.5 23.5s10.5 19 10.5 31c0 16.667 -6.5 28.667 -19.5 36s-31.167 11 -54.5 11
c-25.333 0 -47.5 -5 -66.5 -15s-34.167 -20.667 -45.5 -32l-54 69c6 8 14.333 16.167 25 24.5s23.667 15.666 39 21.999s32.666 11.666 51.999 15.999s40.666 6.5 63.999 6.5c51.333 0 90.5 -12 117.5 -36s40.5 -58.333 40.5 -103c0 -22 -4 -40.833 -12 -56.5
s-17.833 -28.834 -29.5 -39.501s-24.5 -19.167 -38.5 -25.5s-27 -11.5 -39 -15.5c-53.333 -16.667 -80 -39.334 -80 -68.001h199v-91h-341zM297.003 389.003l-0.000976562 -92h-241v92h77v243c-3.33301 -4.66699 -8.66602 -10 -15.999 -16s-15.333 -11.667 -24 -17
s-17.667 -9.83301 -27 -13.5s-18 -5.5 -26 -5.5v93c10 0 20.5 3 31.5 9s21 12.5 30 19.5s16.5 13.5 22.5 19.5s9 9.33301 9 10h95v-342h69zM153.002 56.0029l282 324l256 339l72 -64l-273 -316l-266 -348z" />
    <glyph glyph-name="threequarters" unicode="&#xbe;" horiz-adv-x="983" 
d="M205 289c-42 0 -77.5 6.33301 -106.5 19s-49.167 31.667 -60.5 57l50 70c1.33301 -2.66699 4.66602 -6.83398 9.99902 -12.501s12.833 -11.5 22.5 -17.5s21.5 -11.167 35.5 -15.5s30 -6.5 48 -6.5c26 0 48.5 3.5 67.5 10.5s28.5 18.167 28.5 33.5
c0 17.333 -13.167 29.833 -39.5 37.5s-62.5 11.5 -108.5 11.5h-25v85h24c40 0 72.333 3.5 97 10.5s37 19.167 37 36.5c0 6.66699 -2.5 12.334 -7.5 17.001s-11.167 8.5 -18.5 11.5s-15.5 5.16699 -24.5 6.5s-17.5 2 -25.5 2c-26.667 0 -48.667 -4.33301 -66 -13
s-32.666 -20 -45.999 -34l-59 75c8 9.33301 18.167 17.666 30.5 24.999s26 13.5 41 18.5s31 8.66699 48 11s33.833 3.5 50.5 3.5c25.333 0 48.833 -3 70.5 -9s40.334 -14.333 56.001 -25s28 -23.167 37 -37.5s13.5 -29.833 13.5 -46.5
c0 -23.333 -8.66699 -42.666 -26 -57.999s-41 -25.666 -71 -30.999c33.333 -4.66699 59.5 -17.334 78.5 -38.001s28.5 -45 28.5 -73c0 -22 -5.5 -40.833 -16.5 -56.5s-25.333 -28.5 -43 -38.5s-37.834 -17.333 -60.501 -22s-46 -7 -70 -7zM789 1v88h-218v91l247 251h64v-251
h62v-91h-62v-88h-93zM659 180h134v138zM223 56l282 324l256 339l72 -64l-273 -316l-266 -348z" />
    <glyph glyph-name="questiondown" unicode="&#xbf;" horiz-adv-x="487" 
d="M379 261c0 -15.333 -1.00684 -30.001 -3.00684 -44.001s-5.83301 -27.5 -11.5 -40.5s-13.667 -25.167 -24 -36.5s-24.166 -21.666 -41.499 -30.999c-9.33301 -5.33301 -21.166 -11.666 -35.499 -18.999s-28.166 -16 -41.499 -26s-25 -21.5 -35 -34.5s-15 -27.5 -15 -43.5
c0 -22 7.83301 -39.167 23.5 -51.5s33.834 -18.5 54.501 -18.5c13.333 0 25.333 2.5 36 7.5s20 11 28 18s15.167 14.667 21.5 23s11.833 16.166 16.5 23.499l103 -72c-17.333 -40.667 -44.833 -72.334 -82.5 -95.001s-80.167 -34 -127.5 -34
c-25.333 0 -50.666 3.66699 -75.999 11s-48.166 19 -68.499 35s-36.833 36.667 -49.5 62s-19 56 -19 92c0 38 8 69.833 24 95.5s39.333 48.167 70 67.5c14 8.66699 28.167 16.834 42.5 24.501s27.333 15.5 39 23.5s21.334 17 29.001 27s11.5 22 11.5 36h131z
M375.993 505.999v-150h-131v150h131z" />
    <glyph glyph-name="Agrave" unicode="&#xc0;" horiz-adv-x="673" 
d="M-2 0l273 710h133l272 -710h-174l-55 159h-221l-54 -159h-174zM337 536l-85 -264h167zM196 916h145l52 -130l-101 -28z" />
    <glyph glyph-name="Aacute" unicode="&#xc1;" horiz-adv-x="673" 
d="M-2 0l273 710h133l272 -710h-174l-55 159h-221l-54 -159h-174zM337 536l-85 -264h167zM383 757l-102 28l52 130h145z" />
    <glyph glyph-name="Acircumflex" unicode="&#xc2;" horiz-adv-x="673" 
d="M-2 0l273 710h133l272 -710h-174l-55 159h-221l-54 -159h-174zM337 536l-85 -264h167zM170 807l110 108h115l109 -108l-82 -36l-85 63l-85 -63z" />
    <glyph glyph-name="Atilde" unicode="&#xc3;" horiz-adv-x="673" 
d="M-2 0l273 710h133l272 -710h-174l-55 159h-221l-54 -159h-174zM337 536l-85 -264h167zM401 773c-15.333 0 -28.832 2.33301 -40.499 7s-22.5 10 -32.5 16s-19.667 11.333 -29 16s-19.666 7 -30.999 7s-20 -2.33301 -26 -7s-10.667 -10 -14 -16s-5.33301 -11.5 -6 -16.5
s-1 -7.83301 -1 -8.5h-86c0 7.33301 2.16699 18.833 6.5 34.5s11.5 31.5 21.5 47.5s23.167 30 39.5 42s36.166 18 59.499 18c16 0 29.667 -2.5 41 -7.5s21.833 -10.5 31.5 -16.5s19.167 -11.5 28.5 -16.5s20 -7.5 32 -7.5c11.333 0 20.5 2.5 27.5 7.5s12.333 10.5 16 16.5
s6 11.667 7 17s1.5 8.33301 1.5 9h86c0 -5.33301 -2.33301 -15.666 -7 -30.999s-12.167 -31.333 -22.5 -48s-23.833 -31.334 -40.5 -44.001s-37.334 -19 -62.001 -19z" />
    <glyph glyph-name="Adieresis" unicode="&#xc4;" horiz-adv-x="673" 
d="M-2 0l273 710h133l272 -710h-174l-55 159h-221l-54 -159h-174zM337 536l-85 -264h167zM166 779v129h132v-129h-132zM376 779v129h132v-129h-132z" />
    <glyph glyph-name="Aring" unicode="&#xc5;" horiz-adv-x="673" 
d="M-2 0l273 710h133l272 -710h-174l-55 159h-221l-54 -159h-174zM337 536l-85 -264h167zM230 833c0 27.333 9.83301 47.833 29.5 61.5s45.5 20.5 77.5 20.5s57.667 -6.83301 77 -20.5s29 -34.167 29 -61.5c0 -26.667 -9.66699 -46.834 -29 -60.501s-45 -20.5 -77 -20.5
s-57.833 6.83301 -77.5 20.5s-29.5 33.834 -29.5 60.501zM337 868c-11.333 0 -20.833 -3.16699 -28.5 -9.5s-11.5 -14.5 -11.5 -24.5s3.83301 -18.333 11.5 -25s17.167 -10 28.5 -10c10.667 0 20 3.16699 28 9.5s12 14.833 12 25.5c0 10 -3.83301 18.167 -11.5 24.5
s-17.167 9.5 -28.5 9.5z" />
    <glyph glyph-name="AE" unicode="&#xc6;" horiz-adv-x="977" 
d="M419 710h516v-144h-310v-133h256v-143h-256v-146h319v-144h-482v159h-215l-91 -159h-174zM450 303v224l-133 -224h133z" />
    <glyph glyph-name="Ccedilla" unicode="&#xc7;" horiz-adv-x="664" 
d="M283 -127c7.33301 -4.66699 19.6631 -9.16504 36.9961 -13.498s35 -6.5 53 -6.5c16 0 29.333 2.33301 40 7s16 13 16 25c0 11.333 -5 19.5 -15 24.5s-23 7.5 -39 7.5c-14 0 -28.833 -1.33301 -44.5 -4s-27.167 -5 -34.5 -7l44 89
c-46 3.33301 -88.167 16.166 -126.5 38.499s-71.166 50.5 -98.499 84.5s-48.666 72 -63.999 114s-23 85 -23 129c0 42.667 7.66699 85.167 23 127.5s37.666 80.166 66.999 113.499s65.166 60.333 107.499 81s90.5 31 144.5 31c63.333 0 118.333 -14.333 165 -43
s81.334 -66 104.001 -112l-126 -88c-7.33301 18.667 -16.666 34.167 -27.999 46.5s-23.666 22.333 -36.999 30s-27.166 13 -41.499 16s-27.833 4.5 -40.5 4.5c-29.333 0 -54.666 -6.33301 -75.999 -19s-39 -29 -53 -49s-24.5 -42.667 -31.5 -68s-10.5 -51 -10.5 -77
c0 -28 4.16699 -55 12.5 -81s20 -49 35 -69s33.167 -35.833 54.5 -47.5s45 -17.5 71 -17.5c13.333 0 27.166 1.83301 41.499 5.5s28.166 9.33398 41.499 17.001s25.333 17.667 36 30s19.334 27.5 26.001 45.5l135 -79c-9.33301 -23.333 -22.5 -44.166 -39.5 -62.499
s-36.333 -34.5 -58 -48.5s-45 -25.333 -70 -34s-49.833 -14.334 -74.5 -17.001l-24 -35c8.66699 2 18.667 3 30 3c24 0 45 -5.83301 63 -17.5s27 -30.5 27 -56.5c0 -26.667 -11.333 -49.167 -34 -67.5s-58 -27.5 -106 -27.5c-23.333 0 -44 2.16699 -62 6.5
s-33.667 9.16602 -47 14.499z" />
    <glyph glyph-name="Egrave" unicode="&#xc8;" horiz-adv-x="601" 
d="M567 144v-144h-499v710h490v-144h-326v-138h280v-133h-280v-151h335zM180 916h145l52 -130l-101 -28z" />
    <glyph glyph-name="Eacute" unicode="&#xc9;" horiz-adv-x="601" 
d="M367 757l-102 28l52 130h145zM567 144v-144h-499v710h490v-144h-326v-138h280v-133h-280v-151h335z" />
    <glyph glyph-name="Ecircumflex" unicode="&#xca;" horiz-adv-x="601" 
d="M154 807l110 108h115l109 -108l-82 -36l-85 63l-85 -63zM567 144v-144h-499v710h490v-144h-326v-138h280v-133h-280v-151h335z" />
    <glyph glyph-name="Edieresis" unicode="&#xcb;" horiz-adv-x="601" 
d="M150 779v129h132v-129h-132zM360 779v129h132v-129h-132zM567 144v-144h-499v710h490v-144h-326v-138h280v-133h-280v-151h335z" />
    <glyph glyph-name="Igrave" unicode="&#xcc;" horiz-adv-x="300" 
d="M68 0v710h164v-710h-164zM8 916h145l52 -130l-101 -28z" />
    <glyph glyph-name="Iacute" unicode="&#xcd;" horiz-adv-x="300" 
d="M68 0v710h164v-710h-164zM195 757l-102 28l52 130h145z" />
    <glyph glyph-name="Icircumflex" unicode="&#xce;" horiz-adv-x="300" 
d="M68 0v710h164v-710h-164zM-17 807l110 108h115l109 -108l-82 -36l-85 63l-85 -63z" />
    <glyph glyph-name="Idieresis" unicode="&#xcf;" horiz-adv-x="300" 
d="M68 0v710h164v-710h-164zM-21 779v129h132v-129h-132zM189 779v129h132v-129h-132z" />
    <glyph glyph-name="Eth" unicode="&#xd0;" horiz-adv-x="722" 
d="M72 0v298h-43v118h43v294h265c58.667 0 110 -9.33301 154 -28s80.833 -44 110.5 -76s52 -69.5 67 -112.5s22.5 -88.833 22.5 -137.5c0 -54 -8.33301 -102.833 -25 -146.5s-40.5 -81 -71.5 -112s-68.333 -55 -112 -72s-92.167 -25.5 -145.5 -25.5h-265zM524 356
c0 31.333 -4.16797 59.8311 -12.501 85.498s-20.5 47.834 -36.5 66.501s-35.667 33 -59 43s-49.666 15 -78.999 15h-101v-150h128v-118h-128v-154h101c30 0 56.667 5.33301 80 16s42.833 25.5 58.5 44.5s27.667 41.333 36 67s12.5 53.834 12.5 84.501z" />
    <glyph glyph-name="Ntilde" unicode="&#xd1;" horiz-adv-x="759" 
d="M232 406v-406h-164v710h128l331 -417v417h164v-710h-132zM441 772c-15.333 0 -28.832 2.33301 -40.499 7s-22.5 10 -32.5 16s-19.667 11.333 -29 16s-19.666 7 -30.999 7s-20 -2.33301 -26 -7s-10.667 -10 -14 -16s-5.33301 -11.5 -6 -16.5s-1 -7.83301 -1 -8.5h-86
c0 7.33301 2.16699 18.833 6.5 34.5s11.5 31.5 21.5 47.5s23.167 30 39.5 42s36.166 18 59.499 18c16 0 29.667 -2.5 41 -7.5s21.833 -10.5 31.5 -16.5s19.167 -11.5 28.5 -16.5s20 -7.5 32 -7.5c11.333 0 20.5 2.5 27.5 7.5s12.333 10.5 16 16.5s6 11.667 7 17
s1.5 8.33301 1.5 9h86c0 -5.33301 -2.33301 -15.666 -7 -30.999s-12.167 -31.333 -22.5 -48s-23.833 -31.334 -40.5 -44.001s-37.334 -19 -62.001 -19z" />
    <glyph glyph-name="Ograve" unicode="&#xd2;" horiz-adv-x="734" 
d="M366 -6c-50.667 0 -96.667 10.332 -138 30.999s-76.833 47.834 -106.5 81.501s-52.667 72.167 -69 115.5s-24.5 88 -24.5 134c0 46.667 8.5 91.667 25.5 135s40.667 81.5 71 114.5s66.333 59.333 108 79s87.167 29.5 136.5 29.5c50.667 0 96.667 -10.333 138 -31
s76.833 -48 106.5 -82s52.5 -72.667 68.5 -116s24 -87.333 24 -132c0 -46.667 -8.5 -91.667 -25.5 -135s-40.5 -81.5 -70.5 -114.5s-65.833 -59.5 -107.5 -79.5s-87.167 -30 -136.5 -30zM195 353.999c0 -27.333 3.83203 -53.835 11.499 -79.502s18.667 -48.5 33 -68.5
s32.333 -36 54 -48s46.5 -18 74.5 -18c28.667 0 53.667 6.33301 75 19s39.166 29.167 53.499 49.5s25 43.333 32 69s10.5 51.834 10.5 78.501c0 27.333 -3.83301 53.833 -11.5 79.5s-18.834 48.334 -33.501 68.001s-32.667 35.334 -54 47.001s-45.666 17.5 -72.999 17.5
c-28.667 0 -53.667 -6.16699 -75 -18.5s-39.166 -28.5 -53.499 -48.5s-25.166 -42.833 -32.499 -68.5s-11 -51.834 -11 -78.501zM227.999 915.997h145l52 -130l-101 -28z" />
    <glyph glyph-name="Oacute" unicode="&#xd3;" horiz-adv-x="734" 
d="M415 757l-102 28l52 130h145zM366 -6c-50.667 0 -96.667 10.332 -138 30.999s-76.833 47.834 -106.5 81.501s-52.667 72.167 -69 115.5s-24.5 88 -24.5 134c0 46.667 8.5 91.667 25.5 135s40.667 81.5 71 114.5s66.333 59.333 108 79s87.167 29.5 136.5 29.5
c50.667 0 96.667 -10.333 138 -31s76.833 -48 106.5 -82s52.5 -72.667 68.5 -116s24 -87.333 24 -132c0 -46.667 -8.5 -91.667 -25.5 -135s-40.5 -81.5 -70.5 -114.5s-65.833 -59.5 -107.5 -79.5s-87.167 -30 -136.5 -30zM195 353.999
c0 -27.333 3.83203 -53.835 11.499 -79.502s18.667 -48.5 33 -68.5s32.333 -36 54 -48s46.5 -18 74.5 -18c28.667 0 53.667 6.33301 75 19s39.166 29.167 53.499 49.5s25 43.333 32 69s10.5 51.834 10.5 78.501c0 27.333 -3.83301 53.833 -11.5 79.5
s-18.834 48.334 -33.501 68.001s-32.667 35.334 -54 47.001s-45.666 17.5 -72.999 17.5c-28.667 0 -53.667 -6.16699 -75 -18.5s-39.166 -28.5 -53.499 -48.5s-25.166 -42.833 -32.499 -68.5s-11 -51.834 -11 -78.501z" />
    <glyph glyph-name="Ocircumflex" unicode="&#xd4;" horiz-adv-x="734" 
d="M202 807l110 108h115l109 -108l-82 -36l-85 63l-85 -63zM366 -6c-50.667 0 -96.667 10.332 -138 30.999s-76.833 47.834 -106.5 81.501s-52.667 72.167 -69 115.5s-24.5 88 -24.5 134c0 46.667 8.5 91.667 25.5 135s40.667 81.5 71 114.5s66.333 59.333 108 79
s87.167 29.5 136.5 29.5c50.667 0 96.667 -10.333 138 -31s76.833 -48 106.5 -82s52.5 -72.667 68.5 -116s24 -87.333 24 -132c0 -46.667 -8.5 -91.667 -25.5 -135s-40.5 -81.5 -70.5 -114.5s-65.833 -59.5 -107.5 -79.5s-87.167 -30 -136.5 -30zM195 353.999
c0 -27.333 3.83203 -53.835 11.499 -79.502s18.667 -48.5 33 -68.5s32.333 -36 54 -48s46.5 -18 74.5 -18c28.667 0 53.667 6.33301 75 19s39.166 29.167 53.499 49.5s25 43.333 32 69s10.5 51.834 10.5 78.501c0 27.333 -3.83301 53.833 -11.5 79.5
s-18.834 48.334 -33.501 68.001s-32.667 35.334 -54 47.001s-45.666 17.5 -72.999 17.5c-28.667 0 -53.667 -6.16699 -75 -18.5s-39.166 -28.5 -53.499 -48.5s-25.166 -42.833 -32.499 -68.5s-11 -51.834 -11 -78.501z" />
    <glyph glyph-name="Otilde" unicode="&#xd5;" horiz-adv-x="734" 
d="M366 -6c-50.667 0 -96.667 10.332 -138 30.999s-76.833 47.834 -106.5 81.501s-52.667 72.167 -69 115.5s-24.5 88 -24.5 134c0 46.667 8.5 91.667 25.5 135s40.667 81.5 71 114.5s66.333 59.333 108 79s87.167 29.5 136.5 29.5c50.667 0 96.667 -10.333 138 -31
s76.833 -48 106.5 -82s52.5 -72.667 68.5 -116s24 -87.333 24 -132c0 -46.667 -8.5 -91.667 -25.5 -135s-40.5 -81.5 -70.5 -114.5s-65.833 -59.5 -107.5 -79.5s-87.167 -30 -136.5 -30zM195 353.999c0 -27.333 3.83203 -53.835 11.499 -79.502s18.667 -48.5 33 -68.5
s32.333 -36 54 -48s46.5 -18 74.5 -18c28.667 0 53.667 6.33301 75 19s39.166 29.167 53.499 49.5s25 43.333 32 69s10.5 51.834 10.5 78.501c0 27.333 -3.83301 53.833 -11.5 79.5s-18.834 48.334 -33.501 68.001s-32.667 35.334 -54 47.001s-45.666 17.5 -72.999 17.5
c-28.667 0 -53.667 -6.16699 -75 -18.5s-39.166 -28.5 -53.499 -48.5s-25.166 -42.833 -32.499 -68.5s-11 -51.834 -11 -78.501zM432.999 772.997c-15.333 0 -28.832 2.33301 -40.499 7s-22.5 10 -32.5 16s-19.667 11.333 -29 16s-19.666 7 -30.999 7s-20 -2.33301 -26 -7
s-10.667 -10 -14 -16s-5.33301 -11.5 -6 -16.5s-1 -7.83301 -1 -8.5h-86c0 7.33301 2.16699 18.833 6.5 34.5s11.5 31.5 21.5 47.5s23.167 30 39.5 42s36.166 18 59.499 18c16 0 29.667 -2.5 41 -7.5s21.833 -10.5 31.5 -16.5s19.167 -11.5 28.5 -16.5s20 -7.5 32 -7.5
c11.333 0 20.5 2.5 27.5 7.5s12.333 10.5 16 16.5s6 11.667 7 17s1.5 8.33301 1.5 9h86c0 -5.33301 -2.33301 -15.666 -7 -30.999s-12.167 -31.333 -22.5 -48s-23.833 -31.334 -40.5 -44.001s-37.334 -19 -62.001 -19z" />
    <glyph glyph-name="Odieresis" unicode="&#xd6;" horiz-adv-x="734" 
d="M198 779v129h132v-129h-132zM408 779v129h132v-129h-132zM366 -6c-50.667 0 -96.667 10.332 -138 30.999s-76.833 47.834 -106.5 81.501s-52.667 72.167 -69 115.5s-24.5 88 -24.5 134c0 46.667 8.5 91.667 25.5 135s40.667 81.5 71 114.5s66.333 59.333 108 79
s87.167 29.5 136.5 29.5c50.667 0 96.667 -10.333 138 -31s76.833 -48 106.5 -82s52.5 -72.667 68.5 -116s24 -87.333 24 -132c0 -46.667 -8.5 -91.667 -25.5 -135s-40.5 -81.5 -70.5 -114.5s-65.833 -59.5 -107.5 -79.5s-87.167 -30 -136.5 -30zM195 353.999
c0 -27.333 3.83203 -53.835 11.499 -79.502s18.667 -48.5 33 -68.5s32.333 -36 54 -48s46.5 -18 74.5 -18c28.667 0 53.667 6.33301 75 19s39.166 29.167 53.499 49.5s25 43.333 32 69s10.5 51.834 10.5 78.501c0 27.333 -3.83301 53.833 -11.5 79.5
s-18.834 48.334 -33.501 68.001s-32.667 35.334 -54 47.001s-45.666 17.5 -72.999 17.5c-28.667 0 -53.667 -6.16699 -75 -18.5s-39.166 -28.5 -53.499 -48.5s-25.166 -42.833 -32.499 -68.5s-11 -51.834 -11 -78.501z" />
    <glyph glyph-name="multiply" unicode="&#xd7;" horiz-adv-x="484" 
d="M437 181l-100 -99l-96 95l-95 -95l-99 99l95 95l-90 91l100 99l90 -90l90 90l99 -99l-90 -90z" />
    <glyph glyph-name="Oslash" unicode="&#xd8;" horiz-adv-x="736" 
d="M708 710l-84.998 -118.999c27.333 -34 48.166 -71.5 62.499 -112.5s21.5 -82.833 21.5 -125.5c0 -46.667 -8.5 -91.667 -25.5 -135s-40.5 -81.5 -70.5 -114.5s-65.833 -59.5 -107.5 -79.5s-87.167 -30 -136.5 -30c-52.667 0 -100.667 11.333 -144 34l-20 -28h-176l84 119
c-26 33.333 -46.167 70.333 -60.5 111s-21.5 82.667 -21.5 126c0 46.667 8.5 91.667 25.5 135s40.667 81.5 71 114.5s66.333 59.333 108 79s87.167 29.5 136.5 29.5c26 0 50.667 -2.83301 74 -8.5s45.666 -13.834 66.999 -24.501l20 29h177zM540.002 356.001
c0 32.667 -5.66699 63.999 -17 93.999l-213 -299c18.667 -7.33301 38.334 -11 59.001 -11c28.667 0 53.667 6.33301 75 19s39.166 29.167 53.499 49.5s25 43.333 32 69s10.5 51.834 10.5 78.501zM196.002 354c0 -34.667 5.33105 -65.999 15.998 -93.999l211 298
c-8.66699 3.33301 -17.5 5.83301 -26.5 7.5s-18.5 2.5 -28.5 2.5c-28.667 0 -53.667 -6.16699 -75 -18.5s-39.166 -28.5 -53.499 -48.5s-25.166 -42.833 -32.499 -68.5s-11 -51.834 -11 -78.501z" />
    <glyph glyph-name="Ugrave" unicode="&#xd9;" horiz-adv-x="745" 
d="M372 140c28 0 51.6689 5.83203 71.002 17.499s35 27.167 47 46.5s20.5 41.5 25.5 66.5s7.5 50.5 7.5 76.5v363h164v-363c0 -49.333 -6.16699 -95.333 -18.5 -138s-31.333 -80 -57 -112s-58.334 -57.167 -98.001 -75.5s-86.834 -27.5 -141.501 -27.5
c-56.667 0 -105 9.66699 -145 29s-72.5 45.166 -97.5 77.499s-43.333 69.833 -55 112.5s-17.5 87.334 -17.5 134.001v363h164v-363c0 -27.333 2.66699 -53.333 8 -78s14 -46.667 26 -66s27.5 -34.666 46.5 -45.999s42.5 -17 70.5 -17zM231.002 915.999h145l52 -130l-101 -28
z" />
    <glyph glyph-name="Uacute" unicode="&#xda;" horiz-adv-x="745" 
d="M418 757l-102 28l52 130h145zM372 140c28 0 51.6689 5.83203 71.002 17.499s35 27.167 47 46.5s20.5 41.5 25.5 66.5s7.5 50.5 7.5 76.5v363h164v-363c0 -49.333 -6.16699 -95.333 -18.5 -138s-31.333 -80 -57 -112s-58.334 -57.167 -98.001 -75.5
s-86.834 -27.5 -141.501 -27.5c-56.667 0 -105 9.66699 -145 29s-72.5 45.166 -97.5 77.499s-43.333 69.833 -55 112.5s-17.5 87.334 -17.5 134.001v363h164v-363c0 -27.333 2.66699 -53.333 8 -78s14 -46.667 26 -66s27.5 -34.666 46.5 -45.999s42.5 -17 70.5 -17z" />
    <glyph glyph-name="Ucircumflex" unicode="&#xdb;" horiz-adv-x="745" 
d="M205 807l110 108h115l109 -108l-82 -36l-85 63l-85 -63zM372 140c28 0 51.6689 5.83203 71.002 17.499s35 27.167 47 46.5s20.5 41.5 25.5 66.5s7.5 50.5 7.5 76.5v363h164v-363c0 -49.333 -6.16699 -95.333 -18.5 -138s-31.333 -80 -57 -112
s-58.334 -57.167 -98.001 -75.5s-86.834 -27.5 -141.501 -27.5c-56.667 0 -105 9.66699 -145 29s-72.5 45.166 -97.5 77.499s-43.333 69.833 -55 112.5s-17.5 87.334 -17.5 134.001v363h164v-363c0 -27.333 2.66699 -53.333 8 -78s14 -46.667 26 -66
s27.5 -34.666 46.5 -45.999s42.5 -17 70.5 -17z" />
    <glyph glyph-name="Udieresis" unicode="&#xdc;" horiz-adv-x="745" 
d="M201 779v129h132v-129h-132zM411 779v129h132v-129h-132zM372 140c28 0 51.6689 5.83203 71.002 17.499s35 27.167 47 46.5s20.5 41.5 25.5 66.5s7.5 50.5 7.5 76.5v363h164v-363c0 -49.333 -6.16699 -95.333 -18.5 -138s-31.333 -80 -57 -112
s-58.334 -57.167 -98.001 -75.5s-86.834 -27.5 -141.501 -27.5c-56.667 0 -105 9.66699 -145 29s-72.5 45.166 -97.5 77.499s-43.333 69.833 -55 112.5s-17.5 87.334 -17.5 134.001v363h164v-363c0 -27.333 2.66699 -53.333 8 -78s14 -46.667 26 -66
s27.5 -34.666 46.5 -45.999s42.5 -17 70.5 -17z" />
    <glyph glyph-name="Yacute" unicode="&#xdd;" horiz-adv-x="648" 
d="M170 710l153 -326l156 326h178l-252 -468v-242h-164v244l-249 466h178zM369 757l-102 28l52 130h145z" />
    <glyph glyph-name="Thorn" unicode="&#xde;" horiz-adv-x="605" 
d="M355 586c34 0 65.1689 -7.00098 93.502 -21.001s52.666 -32.167 72.999 -54.5s36.333 -47.833 48 -76.5s17.5 -57.667 17.5 -87c0 -31.333 -5.5 -61.5 -16.5 -90.5s-26.333 -54.667 -46 -77s-43.334 -40.166 -71.001 -53.499s-58.5 -20 -92.5 -20h-129v-106h-164v710h164
v-124h123zM352.002 249.999c20 0 36.833 9.16797 50.5 27.501s20.5 41.5 20.5 69.5c0 29.333 -7.83301 52.666 -23.5 69.999s-33.167 26 -52.5 26h-115v-193h120z" />
    <glyph glyph-name="germandbls" unicode="&#xdf;" horiz-adv-x="560" 
d="M250 141c33.333 0 61.3301 7.33203 83.9971 21.999s34 37.334 34 68.001c0 14.667 -2.83301 27.5 -8.5 38.5s-13 20.167 -22 27.5s-19 12.833 -30 16.5s-21.833 5.5 -32.5 5.5h-22v143h20c19.333 0 34 5.33301 44 16s15 24.667 15 42c0 12.667 -2.33301 22.834 -7 30.501
s-10.334 13.667 -17.001 18s-13.5 7.16602 -20.5 8.49902s-12.833 2 -17.5 2c-13.333 0 -24.166 -2.83301 -32.499 -8.5s-14.833 -12.667 -19.5 -21s-7.83398 -17.333 -9.50098 -27s-2.5 -18.167 -2.5 -25.5v-497h-152v525c0 27.333 5.83301 52.5 17.5 75.5
s27.834 43 48.501 60s45 30.167 73 39.5s58.333 14 91 14c28.667 0 55.167 -3.83301 79.5 -11.5s45.5 -18.5 63.5 -32.5s32 -31.333 42 -52s15 -44 15 -70c0 -17.333 -2.16699 -33.666 -6.5 -48.999s-10.166 -29.333 -17.499 -42s-15.666 -23.667 -24.999 -33
s-19.333 -16.333 -30 -21c40 -13.333 71.833 -36.5 95.5 -69.5s35.5 -73.5 35.5 -121.5c0 -40.667 -8.16699 -74.834 -24.5 -102.501s-38 -50 -65 -67s-57.667 -29.333 -92 -37s-69.166 -11.5 -104.499 -11.5v147z" />
    <glyph glyph-name="agrave" unicode="&#xe0;" horiz-adv-x="590" 
d="M204 -10c-26 0 -50.167 4.16797 -72.5 12.501s-41.5 20 -57.5 35s-28.667 32.667 -38 53s-14 42.5 -14 66.5c0 26 5.5 49.667 16.5 71s26.5 39.666 46.5 54.999s43.667 27.333 71 36s57.666 13 90.999 13c22 0 43.333 -1.83301 64 -5.5s38.667 -9.16699 54 -16.5v24
c0 60.667 -35 91 -105 91c-28.667 0 -56 -4.83301 -82 -14.5s-53.333 -24.167 -82 -43.5l-47 100c34.667 22.667 70.667 39.667 108 51s77 17 119 17c79.333 0 140.666 -18.667 183.999 -56s65 -92 65 -164v-135c0 -16 3 -27.167 9 -33.5s16.667 -10.166 32 -11.499v-135
c-15.333 -3.33301 -29.5 -5.5 -42.5 -6.5s-24.5 -1.5 -34.5 -1.5c-29.333 0.666992 -51.666 6.66699 -66.999 18s-25 27.666 -29 48.999l-3 24c-23.333 -30 -51.166 -53 -83.499 -69s-66.5 -24 -102.5 -24zM251 105.001c17.333 0 34.166 2.99805 50.499 8.99805
s29.833 14 40.5 24c15.333 12 23 24.667 23 38v50c-14 5.33301 -29.167 9.5 -45.5 12.5s-31.5 4.5 -45.5 4.5c-29.333 0 -53.5 -6.66699 -72.5 -20s-28.5 -30.666 -28.5 -51.999c0 -19.333 7.33301 -35.166 22 -47.499s33.334 -18.5 56.001 -18.5zM135 730.999h145l52 -130
l-101 -28z" />
    <glyph glyph-name="aacute" unicode="&#xe1;" horiz-adv-x="590" 
d="M204 -10c-26 0 -50.167 4.16797 -72.5 12.501s-41.5 20 -57.5 35s-28.667 32.667 -38 53s-14 42.5 -14 66.5c0 26 5.5 49.667 16.5 71s26.5 39.666 46.5 54.999s43.667 27.333 71 36s57.666 13 90.999 13c22 0 43.333 -1.83301 64 -5.5s38.667 -9.16699 54 -16.5v24
c0 60.667 -35 91 -105 91c-28.667 0 -56 -4.83301 -82 -14.5s-53.333 -24.167 -82 -43.5l-47 100c34.667 22.667 70.667 39.667 108 51s77 17 119 17c79.333 0 140.666 -18.667 183.999 -56s65 -92 65 -164v-135c0 -16 3 -27.167 9 -33.5s16.667 -10.166 32 -11.499v-135
c-15.333 -3.33301 -29.5 -5.5 -42.5 -6.5s-24.5 -1.5 -34.5 -1.5c-29.333 0.666992 -51.666 6.66699 -66.999 18s-25 27.666 -29 48.999l-3 24c-23.333 -30 -51.166 -53 -83.499 -69s-66.5 -24 -102.5 -24zM251 105.001c17.333 0 34.166 2.99805 50.499 8.99805
s29.833 14 40.5 24c15.333 12 23 24.667 23 38v50c-14 5.33301 -29.167 9.5 -45.5 12.5s-31.5 4.5 -45.5 4.5c-29.333 0 -53.5 -6.66699 -72.5 -20s-28.5 -30.666 -28.5 -51.999c0 -19.333 7.33301 -35.166 22 -47.499s33.334 -18.5 56.001 -18.5zM322 571.999l-102 28
l52 130h145z" />
    <glyph glyph-name="acircumflex" unicode="&#xe2;" horiz-adv-x="590" 
d="M204 -10c-26 0 -50.167 4.16797 -72.5 12.501s-41.5 20 -57.5 35s-28.667 32.667 -38 53s-14 42.5 -14 66.5c0 26 5.5 49.667 16.5 71s26.5 39.666 46.5 54.999s43.667 27.333 71 36s57.666 13 90.999 13c22 0 43.333 -1.83301 64 -5.5s38.667 -9.16699 54 -16.5v24
c0 60.667 -35 91 -105 91c-28.667 0 -56 -4.83301 -82 -14.5s-53.333 -24.167 -82 -43.5l-47 100c34.667 22.667 70.667 39.667 108 51s77 17 119 17c79.333 0 140.666 -18.667 183.999 -56s65 -92 65 -164v-135c0 -16 3 -27.167 9 -33.5s16.667 -10.166 32 -11.499v-135
c-15.333 -3.33301 -29.5 -5.5 -42.5 -6.5s-24.5 -1.5 -34.5 -1.5c-29.333 0.666992 -51.666 6.66699 -66.999 18s-25 27.666 -29 48.999l-3 24c-23.333 -30 -51.166 -53 -83.499 -69s-66.5 -24 -102.5 -24zM251 105.001c17.333 0 34.166 2.99805 50.499 8.99805
s29.833 14 40.5 24c15.333 12 23 24.667 23 38v50c-14 5.33301 -29.167 9.5 -45.5 12.5s-31.5 4.5 -45.5 4.5c-29.333 0 -53.5 -6.66699 -72.5 -20s-28.5 -30.666 -28.5 -51.999c0 -19.333 7.33301 -35.166 22 -47.499s33.334 -18.5 56.001 -18.5zM109 621.999l110 108h115
l109 -108l-82 -36l-85 63l-85 -63z" />
    <glyph glyph-name="atilde" unicode="&#xe3;" horiz-adv-x="590" 
d="M204 -10c-26 0 -50.167 4.16797 -72.5 12.501s-41.5 20 -57.5 35s-28.667 32.667 -38 53s-14 42.5 -14 66.5c0 26 5.5 49.667 16.5 71s26.5 39.666 46.5 54.999s43.667 27.333 71 36s57.666 13 90.999 13c22 0 43.333 -1.83301 64 -5.5s38.667 -9.16699 54 -16.5v24
c0 60.667 -35 91 -105 91c-28.667 0 -56 -4.83301 -82 -14.5s-53.333 -24.167 -82 -43.5l-47 100c34.667 22.667 70.667 39.667 108 51s77 17 119 17c79.333 0 140.666 -18.667 183.999 -56s65 -92 65 -164v-135c0 -16 3 -27.167 9 -33.5s16.667 -10.166 32 -11.499v-135
c-15.333 -3.33301 -29.5 -5.5 -42.5 -6.5s-24.5 -1.5 -34.5 -1.5c-29.333 0.666992 -51.666 6.66699 -66.999 18s-25 27.666 -29 48.999l-3 24c-23.333 -30 -51.166 -53 -83.499 -69s-66.5 -24 -102.5 -24zM251 105.001c17.333 0 34.166 2.99805 50.499 8.99805
s29.833 14 40.5 24c15.333 12 23 24.667 23 38v50c-14 5.33301 -29.167 9.5 -45.5 12.5s-31.5 4.5 -45.5 4.5c-29.333 0 -53.5 -6.66699 -72.5 -20s-28.5 -30.666 -28.5 -51.999c0 -19.333 7.33301 -35.166 22 -47.499s33.334 -18.5 56.001 -18.5zM339 587.999
c-15.333 0 -28.832 2.33301 -40.499 7s-22.5 10 -32.5 16s-19.667 11.333 -29 16s-19.666 7 -30.999 7s-20 -2.33301 -26 -7s-10.667 -10 -14 -16s-5.33301 -11.5 -6 -16.5s-1 -7.83301 -1 -8.5h-86c0 7.33301 2.16699 18.833 6.5 34.5s11.5 31.5 21.5 47.5
s23.167 30 39.5 42s36.166 18 59.499 18c16 0 29.667 -2.5 41 -7.5s21.833 -10.5 31.5 -16.5s19.167 -11.5 28.5 -16.5s20 -7.5 32 -7.5c11.333 0 20.5 2.5 27.5 7.5s12.333 10.5 16 16.5s6 11.667 7 17s1.5 8.33301 1.5 9h86c0 -5.33301 -2.33301 -15.666 -7 -30.999
s-12.167 -31.333 -22.5 -48s-23.833 -31.334 -40.5 -44.001s-37.334 -19 -62.001 -19z" />
    <glyph glyph-name="adieresis" unicode="&#xe4;" horiz-adv-x="590" 
d="M204 -10c-26 0 -50.167 4.16797 -72.5 12.501s-41.5 20 -57.5 35s-28.667 32.667 -38 53s-14 42.5 -14 66.5c0 26 5.5 49.667 16.5 71s26.5 39.666 46.5 54.999s43.667 27.333 71 36s57.666 13 90.999 13c22 0 43.333 -1.83301 64 -5.5s38.667 -9.16699 54 -16.5v24
c0 60.667 -35 91 -105 91c-28.667 0 -56 -4.83301 -82 -14.5s-53.333 -24.167 -82 -43.5l-47 100c34.667 22.667 70.667 39.667 108 51s77 17 119 17c79.333 0 140.666 -18.667 183.999 -56s65 -92 65 -164v-135c0 -16 3 -27.167 9 -33.5s16.667 -10.166 32 -11.499v-135
c-15.333 -3.33301 -29.5 -5.5 -42.5 -6.5s-24.5 -1.5 -34.5 -1.5c-29.333 0.666992 -51.666 6.66699 -66.999 18s-25 27.666 -29 48.999l-3 24c-23.333 -30 -51.166 -53 -83.499 -69s-66.5 -24 -102.5 -24zM251 105.001c17.333 0 34.166 2.99805 50.499 8.99805
s29.833 14 40.5 24c15.333 12 23 24.667 23 38v50c-14 5.33301 -29.167 9.5 -45.5 12.5s-31.5 4.5 -45.5 4.5c-29.333 0 -53.5 -6.66699 -72.5 -20s-28.5 -30.666 -28.5 -51.999c0 -19.333 7.33301 -35.166 22 -47.499s33.334 -18.5 56.001 -18.5zM105 593.999v129h132v-129
h-132zM315 593.999v129h132v-129h-132z" />
    <glyph glyph-name="aring" unicode="&#xe5;" horiz-adv-x="590" 
d="M204 -10c-26 0 -50.167 4.16797 -72.5 12.501s-41.5 20 -57.5 35s-28.667 32.667 -38 53s-14 42.5 -14 66.5c0 26 5.5 49.667 16.5 71s26.5 39.666 46.5 54.999s43.667 27.333 71 36s57.666 13 90.999 13c22 0 43.333 -1.83301 64 -5.5s38.667 -9.16699 54 -16.5v24
c0 60.667 -35 91 -105 91c-28.667 0 -56 -4.83301 -82 -14.5s-53.333 -24.167 -82 -43.5l-47 100c34.667 22.667 70.667 39.667 108 51s77 17 119 17c79.333 0 140.666 -18.667 183.999 -56s65 -92 65 -164v-135c0 -16 3 -27.167 9 -33.5s16.667 -10.166 32 -11.499v-135
c-15.333 -3.33301 -29.5 -5.5 -42.5 -6.5s-24.5 -1.5 -34.5 -1.5c-29.333 0.666992 -51.666 6.66699 -66.999 18s-25 27.666 -29 48.999l-3 24c-23.333 -30 -51.166 -53 -83.499 -69s-66.5 -24 -102.5 -24zM251 105.001c17.333 0 34.166 2.99805 50.499 8.99805
s29.833 14 40.5 24c15.333 12 23 24.667 23 38v50c-14 5.33301 -29.167 9.5 -45.5 12.5s-31.5 4.5 -45.5 4.5c-29.333 0 -53.5 -6.66699 -72.5 -20s-28.5 -30.666 -28.5 -51.999c0 -19.333 7.33301 -35.166 22 -47.499s33.334 -18.5 56.001 -18.5zM169 647.999
c0 27.333 9.83301 47.833 29.5 61.5s45.5 20.5 77.5 20.5s57.667 -6.83301 77 -20.5s29 -34.167 29 -61.5c0 -26.667 -9.66699 -46.834 -29 -60.501s-45 -20.5 -77 -20.5s-57.833 6.83301 -77.5 20.5s-29.5 33.834 -29.5 60.501zM276 682.999
c-11.333 0 -20.833 -3.16699 -28.5 -9.5s-11.5 -14.5 -11.5 -24.5s3.83301 -18.333 11.5 -25s17.167 -10 28.5 -10c10.667 0 20 3.16699 28 9.5s12 14.833 12 25.5c0 10 -3.83301 18.167 -11.5 24.5s-17.167 9.5 -28.5 9.5z" />
    <glyph glyph-name="ae" unicode="&#xe6;" horiz-adv-x="940" 
d="M204 -10c-26 0 -49.9971 4.16797 -71.9971 12.501s-41 20 -57 35s-28.667 32.667 -38 53s-14 42.5 -14 66.5c0 26 5.5 49.667 16.5 71s26.5 39.666 46.5 54.999s43.667 27.333 71 36s57.333 13 90 13c21.333 0 41.666 -1.83301 60.999 -5.5s36.666 -8.5 51.999 -14.5
c0.666992 3.33301 1.16699 8.5 1.5 15.5s1.16602 11.833 2.49902 14.5c-1.33301 28 -10.5 48.833 -27.5 62.5s-42.5 20.5 -76.5 20.5c-28.667 0 -56 -4.83301 -82 -14.5s-53 -24.167 -81 -43.5l-48 100c35.333 22.667 71.5 39.667 108.5 51s76.5 17 118.5 17
c40 0 75.5 -5.5 106.5 -16.5s56.833 -26.833 77.5 -47.5c22.667 19.333 49 34.833 79 46.5s64 17.5 102 17.5c44.667 0 84.5 -7.33301 119.5 -22s64.5 -34.5 88.5 -59.5s42.167 -54 54.5 -87s18.5 -67.833 18.5 -104.5c0 -8 -0.333008 -16.5 -1 -25.5
s-1.66699 -16.833 -3 -23.5h-391c1.33301 -17.333 5.5 -32.833 12.5 -46.5s16 -25 27 -34s23.333 -15.833 37 -20.5s28.167 -7 43.5 -7c24 0 46.667 5.66699 68 17s35.666 26.666 42.999 45.999l136 -38c-20.667 -41.333 -52.667 -75 -96 -101s-95.333 -39 -156 -39
c-52 0 -97.167 9.5 -135.5 28.5s-69.5 44.5 -93.5 76.5c-12 -18.667 -26.5 -34.667 -43.5 -48s-34.833 -24.166 -53.5 -32.499s-37.667 -14.5 -57 -18.5s-37.666 -6 -54.999 -6zM251.003 105.001c17.333 0 34.166 2.99707 50.499 8.99707s29.833 14 40.5 24
c15.333 12 23.333 24.333 24 37c-1.33301 1.33301 -2.16602 4.5 -2.49902 9.5s-0.833008 10.5 -1.5 16.5s-1.16699 11.5 -1.5 16.5s-0.5 8.5 -0.5 10.5c-13.333 4.66699 -27.5 8.33398 -42.5 11.001s-29.167 4 -42.5 4c-30 0 -54.333 -6.66699 -73 -20
s-28 -30.666 -28 -51.999c0 -19.333 7.33301 -35.166 22 -47.499s33 -18.5 55 -18.5zM753.003 309.998c-3.33301 33.333 -15.334 60 -36.001 80s-47 30 -79 30s-58.167 -10 -78.5 -30s-32.166 -46.667 -35.499 -80h229z" />
    <glyph glyph-name="ccedilla" unicode="&#xe7;" horiz-adv-x="572" 
d="M226 -127c7.33301 -4.66699 19.667 -9.16602 37 -13.499s35 -6.5 53 -6.5c16 0 29.333 2.33301 40 7s16 13 16 25c0 11.333 -5 19.5 -15 24.5s-23 7.5 -39 7.5c-14 0 -28.833 -1.33301 -44.5 -4s-27.167 -5 -34.5 -7l42 85c-40 2.66699 -75.833 12 -107.5 28
s-58.5 36.333 -80.5 61s-38.833 52.667 -50.5 84s-17.5 64.333 -17.5 99c0 36 6.33301 70.5 19 103.5s31 62 55 87s53.5 44.833 88.5 59.5s74.833 22 119.5 22c60.667 0 111.667 -12.833 153 -38.5s72.333 -59.167 93 -100.5l-156 -47c-20.667 33.333 -51 50 -91 50
c-33.333 0 -61.166 -12.333 -83.499 -37s-33.5 -57.667 -33.5 -99c0 -20.667 3 -39.5 9 -56.5s14.333 -31.5 25 -43.5s23.167 -21.333 37.5 -28s29.5 -10 45.5 -10c20 0 38.333 4.83301 55 14.5s29 22.167 37 37.5l156 -48c-17.333 -36 -43.833 -66.5 -79.5 -91.5
s-78.834 -40.167 -129.501 -45.5l-20 -30c8.66699 2 18.667 3 30 3c24 0 45 -5.83301 63 -17.5s27 -30.5 27 -56.5c0 -26.667 -11.333 -49.167 -34 -67.5s-58 -27.5 -106 -27.5c-23.333 0 -44 2.16699 -62 6.5s-33.667 9.16602 -47 14.499z" />
    <glyph glyph-name="egrave" unicode="&#xe8;" horiz-adv-x="604" 
d="M306 -10c-44 0 -83.501 7.16797 -118.501 21.501s-64.667 33.833 -89 58.5s-42.833 53.167 -55.5 85.5s-19 66.166 -19 101.499c0 38 6.33301 73.833 19 107.5s31 63.167 55 88.5s53.5 45.333 88.5 60s74.833 22 119.5 22s84.334 -7.33301 119.001 -22s64 -34.5 88 -59.5
s42.167 -53.833 54.5 -86.5s18.5 -67 18.5 -103c0 -9.33301 -0.333008 -18.5 -1 -27.5s-1.66699 -16.833 -3 -23.5h-388c2.66699 -35.333 15.5 -62.166 38.5 -80.499s49.167 -27.5 78.5 -27.5c23.333 0 45.833 5.66699 67.5 17s36.167 26.666 43.5 45.999l136 -38
c-20.667 -41.333 -52.667 -75 -96 -101s-95.333 -39 -156 -39zM416.999 312.001c-3.33301 33.333 -15.334 59.668 -36.001 79.001s-46.334 29 -77.001 29c-31.333 0 -57.166 -9.83301 -77.499 -29.5s-32.166 -45.834 -35.499 -78.501h226zM162.998 731.003h145l52 -130
l-101 -28z" />
    <glyph glyph-name="eacute" unicode="&#xe9;" horiz-adv-x="604" 
d="M350 572l-102 28l52 130h145zM306 -10c-44 0 -83.501 7.16797 -118.501 21.501s-64.667 33.833 -89 58.5s-42.833 53.167 -55.5 85.5s-19 66.166 -19 101.499c0 38 6.33301 73.833 19 107.5s31 63.167 55 88.5s53.5 45.333 88.5 60s74.833 22 119.5 22
s84.334 -7.33301 119.001 -22s64 -34.5 88 -59.5s42.167 -53.833 54.5 -86.5s18.5 -67 18.5 -103c0 -9.33301 -0.333008 -18.5 -1 -27.5s-1.66699 -16.833 -3 -23.5h-388c2.66699 -35.333 15.5 -62.166 38.5 -80.499s49.167 -27.5 78.5 -27.5
c23.333 0 45.833 5.66699 67.5 17s36.167 26.666 43.5 45.999l136 -38c-20.667 -41.333 -52.667 -75 -96 -101s-95.333 -39 -156 -39zM416.999 312.001c-3.33301 33.333 -15.334 59.668 -36.001 79.001s-46.334 29 -77.001 29c-31.333 0 -57.166 -9.83301 -77.499 -29.5
s-32.166 -45.834 -35.499 -78.501h226z" />
    <glyph glyph-name="ecircumflex" unicode="&#xea;" horiz-adv-x="604" 
d="M137 622l110 108h115l109 -108l-82 -36l-85 63l-85 -63zM306 -10c-44 0 -83.501 7.16797 -118.501 21.501s-64.667 33.833 -89 58.5s-42.833 53.167 -55.5 85.5s-19 66.166 -19 101.499c0 38 6.33301 73.833 19 107.5s31 63.167 55 88.5s53.5 45.333 88.5 60
s74.833 22 119.5 22s84.334 -7.33301 119.001 -22s64 -34.5 88 -59.5s42.167 -53.833 54.5 -86.5s18.5 -67 18.5 -103c0 -9.33301 -0.333008 -18.5 -1 -27.5s-1.66699 -16.833 -3 -23.5h-388c2.66699 -35.333 15.5 -62.166 38.5 -80.499s49.167 -27.5 78.5 -27.5
c23.333 0 45.833 5.66699 67.5 17s36.167 26.666 43.5 45.999l136 -38c-20.667 -41.333 -52.667 -75 -96 -101s-95.333 -39 -156 -39zM416.999 312.001c-3.33301 33.333 -15.334 59.668 -36.001 79.001s-46.334 29 -77.001 29c-31.333 0 -57.166 -9.83301 -77.499 -29.5
s-32.166 -45.834 -35.499 -78.501h226z" />
    <glyph glyph-name="edieresis" unicode="&#xeb;" horiz-adv-x="604" 
d="M134 594v129h132v-129h-132zM344 594v129h132v-129h-132zM306 -10c-44 0 -83.501 7.16797 -118.501 21.501s-64.667 33.833 -89 58.5s-42.833 53.167 -55.5 85.5s-19 66.166 -19 101.499c0 38 6.33301 73.833 19 107.5s31 63.167 55 88.5s53.5 45.333 88.5 60
s74.833 22 119.5 22s84.334 -7.33301 119.001 -22s64 -34.5 88 -59.5s42.167 -53.833 54.5 -86.5s18.5 -67 18.5 -103c0 -9.33301 -0.333008 -18.5 -1 -27.5s-1.66699 -16.833 -3 -23.5h-388c2.66699 -35.333 15.5 -62.166 38.5 -80.499s49.167 -27.5 78.5 -27.5
c23.333 0 45.833 5.66699 67.5 17s36.167 26.666 43.5 45.999l136 -38c-20.667 -41.333 -52.667 -75 -96 -101s-95.333 -39 -156 -39zM416.999 312.001c-3.33301 33.333 -15.334 59.668 -36.001 79.001s-46.334 29 -77.001 29c-31.333 0 -57.166 -9.83301 -77.499 -29.5
s-32.166 -45.834 -35.499 -78.501h226z" />
    <glyph glyph-name="igrave" unicode="&#xec;" 
d="M54 0v525h160v-525h-160zM-7 731h145l52 -130l-101 -28z" />
    <glyph glyph-name="iacute" unicode="&#xed;" 
d="M180 572l-102 28l52 130h145zM54 0v525h160v-525h-160z" />
    <glyph glyph-name="icircumflex" unicode="&#xee;" 
d="M-33 622l110 108h115l109 -108l-82 -36l-85 63l-85 -63zM54 0v525h160v-525h-160z" />
    <glyph glyph-name="idieresis" unicode="&#xef;" 
d="M-37 594v129h132v-129h-132zM173 594v129h132v-129h-132zM54 0v525h160v-525h-160z" />
    <glyph glyph-name="eth" unicode="&#xf0;" horiz-adv-x="617" 
d="M537 651l-65.9961 -35.999c38 -46 67 -97.333 87 -154s30 -113.334 30 -170.001c0 -47.333 -6.83301 -89.5 -20.5 -126.5s-32.834 -68.5 -57.501 -94.5s-54.334 -45.833 -89.001 -59.5s-73 -20.5 -115 -20.5c-40 0 -77.167 6.16699 -111.5 18.5s-63.833 29.333 -88.5 51
s-44 47.334 -58 77.001s-21 62.167 -21 97.5c0 32.667 6.16699 63.5 18.5 92.5s29.166 54.333 50.499 76s46.666 38.667 75.999 51s60.666 18.5 93.999 18.5c31.333 0 60.833 -5.83301 88.5 -17.5s50.834 -27.167 69.501 -46.5c-13.333 56 -38.333 107.333 -75 154l-86 -46
l-44 61l77 41c-44.667 39.333 -100.667 76.666 -168 111.999h199c32 -16 61.667 -35.667 89 -59l77 41zM191.004 234.001c0 -32 10.832 -58.167 32.499 -78.5s49.5 -30.5 83.5 -30.5c16.667 0 32.167 2.83301 46.5 8.5s26.833 13.5 37.5 23.5s18.834 21.667 24.501 35
s8.5 28 8.5 44c0 32 -10.833 58 -32.5 78s-49.5 30 -83.5 30s-62 -10.333 -84 -31s-33 -47 -33 -79z" />
    <glyph glyph-name="ntilde" unicode="&#xf1;" horiz-adv-x="611" 
d="M561 0l-159.998 -0.00292969v295c0 34.667 -6.5 59.834 -19.5 75.501s-30.167 23.5 -51.5 23.5c-11.333 0 -22.833 -2.33301 -34.5 -7s-22.667 -11.167 -33 -19.5s-19.833 -18.166 -28.5 -29.499s-15.334 -23.666 -20.001 -36.999v-301h-160v525h144v-88
c19.333 31.333 46.666 55.5 81.999 72.5s76 25.5 122 25.5c34 0 61.5 -6.16699 82.5 -18.5s37.167 -28.333 48.5 -48s18.833 -41.167 22.5 -64.5s5.5 -46 5.5 -68v-336zM387.002 587.997c-15.333 0 -28.832 2.33301 -40.499 7s-22.5 10 -32.5 16s-19.667 11.333 -29 16
s-19.666 7 -30.999 7s-20 -2.33301 -26 -7s-10.667 -10 -14 -16s-5.33301 -11.5 -6 -16.5s-1 -7.83301 -1 -8.5h-86c0 7.33301 2.16699 18.833 6.5 34.5s11.5 31.5 21.5 47.5s23.167 30 39.5 42s36.166 18 59.499 18c16 0 29.667 -2.5 41 -7.5s21.833 -10.5 31.5 -16.5
s19.167 -11.5 28.5 -16.5s20 -7.5 32 -7.5c11.333 0 20.5 2.5 27.5 7.5s12.333 10.5 16 16.5s6 11.667 7 17s1.5 8.33301 1.5 9h86c0 -5.33301 -2.33301 -15.666 -7 -30.999s-12.167 -31.333 -22.5 -48s-23.833 -31.334 -40.5 -44.001s-37.334 -19 -62.001 -19z" />
    <glyph glyph-name="ograve" unicode="&#xf2;" horiz-adv-x="609" 
d="M305 -10c-44.667 0 -84.501 7.33301 -119.501 22s-64.5 34.5 -88.5 59.5s-42.167 54 -54.5 87s-18.5 67.5 -18.5 103.5s6.16699 70.5 18.5 103.5s30.5 62 54.5 87s53.5 45 88.5 60s74.833 22.5 119.5 22.5s84.334 -7.5 119.001 -22.5s64 -35 88 -60s42.333 -54 55 -87
s19 -67.5 19 -103.5s-6.16699 -70.5 -18.5 -103.5s-30.5 -62 -54.5 -87s-53.5 -44.833 -88.5 -59.5s-74.833 -22 -119.5 -22zM187.999 262c0 -41.333 10.999 -74.5 32.999 -99.5s50 -37.5 84 -37.5c16.667 0 32 3.33301 46 10s26.167 16 36.5 28s18.5 26.5 24.5 43.5
s9 35.5 9 55.5c0 41.333 -11 74.5 -33 99.5s-49.667 37.5 -83 37.5c-16.667 0 -32.167 -3.33301 -46.5 -10s-26.666 -16 -36.999 -28s-18.5 -26.5 -24.5 -43.5s-9 -35.5 -9 -55.5zM163.998 731h145l52 -130l-101 -28z" />
    <glyph glyph-name="oacute" unicode="&#xf3;" horiz-adv-x="609" 
d="M350 572l-102 28l52 130h145zM305 -10c-44.667 0 -84.501 7.33301 -119.501 22s-64.5 34.5 -88.5 59.5s-42.167 54 -54.5 87s-18.5 67.5 -18.5 103.5s6.16699 70.5 18.5 103.5s30.5 62 54.5 87s53.5 45 88.5 60s74.833 22.5 119.5 22.5s84.334 -7.5 119.001 -22.5
s64 -35 88 -60s42.333 -54 55 -87s19 -67.5 19 -103.5s-6.16699 -70.5 -18.5 -103.5s-30.5 -62 -54.5 -87s-53.5 -44.833 -88.5 -59.5s-74.833 -22 -119.5 -22zM187.999 262c0 -41.333 10.999 -74.5 32.999 -99.5s50 -37.5 84 -37.5c16.667 0 32 3.33301 46 10
s26.167 16 36.5 28s18.5 26.5 24.5 43.5s9 35.5 9 55.5c0 41.333 -11 74.5 -33 99.5s-49.667 37.5 -83 37.5c-16.667 0 -32.167 -3.33301 -46.5 -10s-26.666 -16 -36.999 -28s-18.5 -26.5 -24.5 -43.5s-9 -35.5 -9 -55.5z" />
    <glyph glyph-name="ocircumflex" unicode="&#xf4;" horiz-adv-x="609" 
d="M137 622l110 108h115l109 -108l-82 -36l-85 63l-85 -63zM305 -10c-44.667 0 -84.501 7.33301 -119.501 22s-64.5 34.5 -88.5 59.5s-42.167 54 -54.5 87s-18.5 67.5 -18.5 103.5s6.16699 70.5 18.5 103.5s30.5 62 54.5 87s53.5 45 88.5 60s74.833 22.5 119.5 22.5
s84.334 -7.5 119.001 -22.5s64 -35 88 -60s42.333 -54 55 -87s19 -67.5 19 -103.5s-6.16699 -70.5 -18.5 -103.5s-30.5 -62 -54.5 -87s-53.5 -44.833 -88.5 -59.5s-74.833 -22 -119.5 -22zM187.999 262c0 -41.333 10.999 -74.5 32.999 -99.5s50 -37.5 84 -37.5
c16.667 0 32 3.33301 46 10s26.167 16 36.5 28s18.5 26.5 24.5 43.5s9 35.5 9 55.5c0 41.333 -11 74.5 -33 99.5s-49.667 37.5 -83 37.5c-16.667 0 -32.167 -3.33301 -46.5 -10s-26.666 -16 -36.999 -28s-18.5 -26.5 -24.5 -43.5s-9 -35.5 -9 -55.5z" />
    <glyph glyph-name="otilde" unicode="&#xf5;" horiz-adv-x="609" 
d="M305 -10c-44.667 0 -84.501 7.33301 -119.501 22s-64.5 34.5 -88.5 59.5s-42.167 54 -54.5 87s-18.5 67.5 -18.5 103.5s6.16699 70.5 18.5 103.5s30.5 62 54.5 87s53.5 45 88.5 60s74.833 22.5 119.5 22.5s84.334 -7.5 119.001 -22.5s64 -35 88 -60s42.333 -54 55 -87
s19 -67.5 19 -103.5s-6.16699 -70.5 -18.5 -103.5s-30.5 -62 -54.5 -87s-53.5 -44.833 -88.5 -59.5s-74.833 -22 -119.5 -22zM187.999 262c0 -41.333 10.999 -74.5 32.999 -99.5s50 -37.5 84 -37.5c16.667 0 32 3.33301 46 10s26.167 16 36.5 28s18.5 26.5 24.5 43.5
s9 35.5 9 55.5c0 41.333 -11 74.5 -33 99.5s-49.667 37.5 -83 37.5c-16.667 0 -32.167 -3.33301 -46.5 -10s-26.666 -16 -36.999 -28s-18.5 -26.5 -24.5 -43.5s-9 -35.5 -9 -55.5zM367.998 588c-15.333 0 -28.832 2.33301 -40.499 7s-22.5 10 -32.5 16
s-19.667 11.333 -29 16s-19.666 7 -30.999 7s-20 -2.33301 -26 -7s-10.667 -10 -14 -16s-5.33301 -11.5 -6 -16.5s-1 -7.83301 -1 -8.5h-86c0 7.33301 2.16699 18.833 6.5 34.5s11.5 31.5 21.5 47.5s23.167 30 39.5 42s36.166 18 59.499 18c16 0 29.667 -2.5 41 -7.5
s21.833 -10.5 31.5 -16.5s19.167 -11.5 28.5 -16.5s20 -7.5 32 -7.5c11.333 0 20.5 2.5 27.5 7.5s12.333 10.5 16 16.5s6 11.667 7 17s1.5 8.33301 1.5 9h86c0 -5.33301 -2.33301 -15.666 -7 -30.999s-12.167 -31.333 -22.5 -48s-23.833 -31.334 -40.5 -44.001
s-37.334 -19 -62.001 -19z" />
    <glyph glyph-name="odieresis" unicode="&#xf6;" horiz-adv-x="609" 
d="M134 594v129h132v-129h-132zM344 594v129h132v-129h-132zM305 -10c-44.667 0 -84.501 7.33301 -119.501 22s-64.5 34.5 -88.5 59.5s-42.167 54 -54.5 87s-18.5 67.5 -18.5 103.5s6.16699 70.5 18.5 103.5s30.5 62 54.5 87s53.5 45 88.5 60s74.833 22.5 119.5 22.5
s84.334 -7.5 119.001 -22.5s64 -35 88 -60s42.333 -54 55 -87s19 -67.5 19 -103.5s-6.16699 -70.5 -18.5 -103.5s-30.5 -62 -54.5 -87s-53.5 -44.833 -88.5 -59.5s-74.833 -22 -119.5 -22zM187.999 262c0 -41.333 10.999 -74.5 32.999 -99.5s50 -37.5 84 -37.5
c16.667 0 32 3.33301 46 10s26.167 16 36.5 28s18.5 26.5 24.5 43.5s9 35.5 9 55.5c0 41.333 -11 74.5 -33 99.5s-49.667 37.5 -83 37.5c-16.667 0 -32.167 -3.33301 -46.5 -10s-26.666 -16 -36.999 -28s-18.5 -26.5 -24.5 -43.5s-9 -35.5 -9 -55.5z" />
    <glyph glyph-name="divide" unicode="&#xf7;" horiz-adv-x="498" 
d="M182 426v143h135v-143h-135zM182 38v143h135v-143h-135zM47 240v127h404v-127h-404z" />
    <glyph glyph-name="oslash" unicode="&#xf8;" horiz-adv-x="609" 
d="M98 70c-24 25.333 -42.334 54.5 -55.001 87.5s-19 67.833 -19 104.5c0 36 6.16699 70.5 18.5 103.5s30.5 62 54.5 87s53.5 45 88.5 60s74.833 22.5 119.5 22.5c29.333 0 56.333 -3.33301 81 -10s47.334 -15.667 68.001 -27l27 32h88l-62 -72
c25.333 -25.333 44.833 -54.833 58.5 -88.5s20.5 -69.5 20.5 -107.5c0 -36 -6.16699 -70.5 -18.5 -103.5s-30.5 -62 -54.5 -87s-53.5 -44.833 -88.5 -59.5s-74.833 -22 -119.5 -22c-60 0 -111.667 13.333 -155 40l-30 -35h-87zM304.999 125
c16.667 0 31.999 3.33301 45.999 10s26.167 16 36.5 28s18.5 26.5 24.5 43.5s9 35.5 9 55.5c0 29.333 -6.33301 55 -19 77l-159 -196c16.667 -12 37.334 -18 62.001 -18zM187.998 262c0 -28.667 5.33203 -53.333 15.999 -74l158 195c-18 10.667 -37 16 -57 16
c-16.667 0 -32.167 -3.33301 -46.5 -10s-26.666 -16 -36.999 -28s-18.5 -26.5 -24.5 -43.5s-9 -35.5 -9 -55.5z" />
    <glyph glyph-name="ugrave" unicode="&#xf9;" horiz-adv-x="633" 
d="M214 -10c-53.333 0 -94.001 16.832 -122.001 50.499s-42 83.167 -42 148.5v336h160v-301c0 -32 6.33301 -56.5 19 -73.5s30.667 -25.5 54 -25.5c21.333 0 42 5.66699 62 17s37.667 31 53 59v324h160v-345c0 -16 3 -27.167 9 -33.5s16.667 -10.166 32 -11.499v-135
c-16.667 -3.33301 -31.167 -5.5 -43.5 -6.5s-23.166 -1.5 -32.499 -1.5c-56 0.666992 -88.333 23 -97 67l-3 32c-24 -34.667 -53.833 -60.167 -89.5 -76.5s-75.5 -24.5 -119.5 -24.5zM162.999 730.999h145l52 -130l-101 -28z" />
    <glyph glyph-name="uacute" unicode="&#xfa;" horiz-adv-x="633" 
d="M350 572l-102 28l52 130h145zM214 -10c-53.333 0 -94.001 16.832 -122.001 50.499s-42 83.167 -42 148.5v336h160v-301c0 -32 6.33301 -56.5 19 -73.5s30.667 -25.5 54 -25.5c21.333 0 42 5.66699 62 17s37.667 31 53 59v324h160v-345c0 -16 3 -27.167 9 -33.5
s16.667 -10.166 32 -11.499v-135c-16.667 -3.33301 -31.167 -5.5 -43.5 -6.5s-23.166 -1.5 -32.499 -1.5c-56 0.666992 -88.333 23 -97 67l-3 32c-24 -34.667 -53.833 -60.167 -89.5 -76.5s-75.5 -24.5 -119.5 -24.5z" />
    <glyph glyph-name="ucircumflex" unicode="&#xfb;" horiz-adv-x="633" 
d="M137 622l110 108h115l109 -108l-82 -36l-85 63l-85 -63zM214 -10c-53.333 0 -94.001 16.832 -122.001 50.499s-42 83.167 -42 148.5v336h160v-301c0 -32 6.33301 -56.5 19 -73.5s30.667 -25.5 54 -25.5c21.333 0 42 5.66699 62 17s37.667 31 53 59v324h160v-345
c0 -16 3 -27.167 9 -33.5s16.667 -10.166 32 -11.499v-135c-16.667 -3.33301 -31.167 -5.5 -43.5 -6.5s-23.166 -1.5 -32.499 -1.5c-56 0.666992 -88.333 23 -97 67l-3 32c-24 -34.667 -53.833 -60.167 -89.5 -76.5s-75.5 -24.5 -119.5 -24.5z" />
    <glyph glyph-name="udieresis" unicode="&#xfc;" horiz-adv-x="633" 
d="M133 594v129h132v-129h-132zM343 594v129h132v-129h-132zM214 -10c-53.333 0 -94.001 16.832 -122.001 50.499s-42 83.167 -42 148.5v336h160v-301c0 -32 6.33301 -56.5 19 -73.5s30.667 -25.5 54 -25.5c21.333 0 42 5.66699 62 17s37.667 31 53 59v324h160v-345
c0 -16 3 -27.167 9 -33.5s16.667 -10.166 32 -11.499v-135c-16.667 -3.33301 -31.167 -5.5 -43.5 -6.5s-23.166 -1.5 -32.499 -1.5c-56 0.666992 -88.333 23 -97 67l-3 32c-24 -34.667 -53.833 -60.167 -89.5 -76.5s-75.5 -24.5 -119.5 -24.5z" />
    <glyph glyph-name="yacute" unicode="&#xfd;" horiz-adv-x="545" 
d="M52 -79c14.667 -4.66699 28.1699 -7.99902 40.5029 -9.99902s23.166 -3 32.499 -3c17.333 0 31.5 6.83301 42.5 20.5s20.167 37.5 27.5 71.5l-199 525h164l123 -388l105 388h149l-201 -610c-14.667 -44 -39.5 -79.167 -74.5 -105.5s-75.5 -39.833 -121.5 -40.5
c-14.667 0 -29.334 1.16699 -44.001 3.5s-29.334 6.16602 -44.001 11.499v137zM329.003 572.001l-102 28l52 130h145z" />
    <glyph glyph-name="thorn" unicode="&#xfe;" horiz-adv-x="600" 
d="M577 256c0 -37.333 -7.16602 -73.167 -21.499 -107.5s-33.666 -64.5 -57.999 -90.5s-52.5 -46.667 -84.5 -62s-66 -23 -102 -23c-28 0 -49.5 4.16699 -64.5 12.5s-24.5 15.833 -28.5 22.5v-221h-164v923h164v-207c4.66699 6.66699 14.667 14.667 30 24
s38.666 14 69.999 14c39.333 0 75 -8.5 107 -25.5s59.167 -39 81.5 -66s39.666 -57.5 51.999 -91.5s18.5 -68 18.5 -102zM412.001 258.999c0 18.667 -2.33105 36.498 -6.99805 53.498s-11.5 31.833 -20.5 44.5s-19.833 22.667 -32.5 30s-27.334 11 -44.001 11
c-21.333 0 -39.166 -6.16699 -53.499 -18.5s-26.5 -28.166 -36.5 -47.499v-155c0 -6 2.5 -12.667 7.5 -20s11.667 -14 20 -20s17.666 -11 27.999 -15s20.833 -6 31.5 -6c16 0 30.5 3.66699 43.5 11s24.167 17.333 33.5 30s16.666 27.834 21.999 45.501s8 36.5 8 56.5z" />
    <glyph glyph-name="ydieresis" unicode="&#xff;" horiz-adv-x="545" 
d="M52 -79c14.667 -4.66699 28.1699 -7.99902 40.5029 -9.99902s23.166 -3 32.499 -3c17.333 0 31.5 6.83301 42.5 20.5s20.167 37.5 27.5 71.5l-199 525h164l123 -388l105 388h149l-201 -610c-14.667 -44 -39.5 -79.167 -74.5 -105.5s-75.5 -39.833 -121.5 -40.5
c-14.667 0 -29.334 1.16699 -44.001 3.5s-29.334 6.16602 -44.001 11.499v137zM112.003 594.001v129h132v-129h-132zM322.003 594.001v129h132v-129h-132z" />
    <glyph glyph-name="Amacron" unicode="&#x100;" horiz-adv-x="673" 
d="M-2 0l273 710h133l272 -710h-174l-55 159h-221l-54 -159h-174zM337 536l-85 -264h167zM186 806v97h304v-97h-304z" />
    <glyph glyph-name="amacron" unicode="&#x101;" horiz-adv-x="590" 
d="M204 -10c-26 0 -50.167 4.16797 -72.5 12.501s-41.5 20 -57.5 35s-28.667 32.667 -38 53s-14 42.5 -14 66.5c0 26 5.5 49.667 16.5 71s26.5 39.666 46.5 54.999s43.667 27.333 71 36s57.666 13 90.999 13c22 0 43.333 -1.83301 64 -5.5s38.667 -9.16699 54 -16.5v24
c0 60.667 -35 91 -105 91c-28.667 0 -56 -4.83301 -82 -14.5s-53.333 -24.167 -82 -43.5l-47 100c34.667 22.667 70.667 39.667 108 51s77 17 119 17c79.333 0 140.666 -18.667 183.999 -56s65 -92 65 -164v-135c0 -16 3 -27.167 9 -33.5s16.667 -10.166 32 -11.499v-135
c-15.333 -3.33301 -29.5 -5.5 -42.5 -6.5s-24.5 -1.5 -34.5 -1.5c-29.333 0.666992 -51.666 6.66699 -66.999 18s-25 27.666 -29 48.999l-3 24c-23.333 -30 -51.166 -53 -83.499 -69s-66.5 -24 -102.5 -24zM251 105.001c17.333 0 34.166 2.99805 50.499 8.99805
s29.833 14 40.5 24c15.333 12 23 24.667 23 38v50c-14 5.33301 -29.167 9.5 -45.5 12.5s-31.5 4.5 -45.5 4.5c-29.333 0 -53.5 -6.66699 -72.5 -20s-28.5 -30.666 -28.5 -51.999c0 -19.333 7.33301 -35.166 22 -47.499s33.334 -18.5 56.001 -18.5zM125 620.999v97h304v-97
h-304z" />
    <glyph glyph-name="Abreve" unicode="&#x102;" horiz-adv-x="673" 
d="M-2 0l273 710h133l272 -710h-174l-55 159h-221l-54 -159h-174zM337 536l-85 -264h167zM337 838c15.333 0 28.833 7.16699 40.5 21.5s18.5 32.833 20.5 55.5h83c0 -21.333 -3.5 -41 -10.5 -59s-16.833 -33.5 -29.5 -46.5s-27.834 -23.167 -45.501 -30.5
s-37.167 -11 -58.5 -11s-40.666 3.66699 -57.999 11s-32.5 17.5 -45.5 30.5s-23 28.5 -30 46.5s-10.5 37.667 -10.5 59h85c0 -21.333 5.83301 -39.5 17.5 -54.5s25.5 -22.5 41.5 -22.5z" />
    <glyph glyph-name="abreve" unicode="&#x103;" horiz-adv-x="590" 
d="M204 -10c-26 0 -50.167 4.16797 -72.5 12.501s-41.5 20 -57.5 35s-28.667 32.667 -38 53s-14 42.5 -14 66.5c0 26 5.5 49.667 16.5 71s26.5 39.666 46.5 54.999s43.667 27.333 71 36s57.666 13 90.999 13c22 0 43.333 -1.83301 64 -5.5s38.667 -9.16699 54 -16.5v24
c0 60.667 -35 91 -105 91c-28.667 0 -56 -4.83301 -82 -14.5s-53.333 -24.167 -82 -43.5l-47 100c34.667 22.667 70.667 39.667 108 51s77 17 119 17c79.333 0 140.666 -18.667 183.999 -56s65 -92 65 -164v-135c0 -16 3 -27.167 9 -33.5s16.667 -10.166 32 -11.499v-135
c-15.333 -3.33301 -29.5 -5.5 -42.5 -6.5s-24.5 -1.5 -34.5 -1.5c-29.333 0.666992 -51.666 6.66699 -66.999 18s-25 27.666 -29 48.999l-3 24c-23.333 -30 -51.166 -53 -83.499 -69s-66.5 -24 -102.5 -24zM251 105.001c17.333 0 34.166 2.99805 50.499 8.99805
s29.833 14 40.5 24c15.333 12 23 24.667 23 38v50c-14 5.33301 -29.167 9.5 -45.5 12.5s-31.5 4.5 -45.5 4.5c-29.333 0 -53.5 -6.66699 -72.5 -20s-28.5 -30.666 -28.5 -51.999c0 -19.333 7.33301 -35.166 22 -47.499s33.334 -18.5 56.001 -18.5zM275 652.999
c15.333 0 28.833 7.16699 40.5 21.5s18.5 32.833 20.5 55.5h83c0 -21.333 -3.5 -41 -10.5 -59s-16.833 -33.5 -29.5 -46.5s-27.834 -23.167 -45.501 -30.5s-37.167 -11 -58.5 -11s-40.666 3.66699 -57.999 11s-32.5 17.5 -45.5 30.5s-23 28.5 -30 46.5
s-10.5 37.667 -10.5 59h85c0 -21.333 5.83301 -39.5 17.5 -54.5s25.5 -22.5 41.5 -22.5z" />
    <glyph glyph-name="Aogonek" unicode="&#x104;" horiz-adv-x="673" 
d="M628 -205c-40 5.33301 -69.667 16.667 -89 34s-29 37 -29 59c0 19.333 7 38.5 21 57.5s35 37.167 63 54.5h-92l-55 159h-221l-54 -159h-174l273 710h133l272 -710c-54.667 -32 -82 -61.667 -82 -89c0 -11.333 5.33301 -20.5 16 -27.5s27 -10.833 49 -11.5zM337 536.001
l-85 -264h167z" />
    <glyph glyph-name="aogonek" unicode="&#x105;" horiz-adv-x="590" 
d="M518 -205c-40 5.33301 -69.666 16.667 -88.999 34s-29 37 -29 59c0 17.333 6 35 18 53s30.333 35.333 55 52c-24 2.66699 -42.5 9.5 -55.5 20.5s-21.167 26.167 -24.5 45.5l-3 24c-23.333 -30 -51.166 -53 -83.499 -69s-66.5 -24 -102.5 -24
c-26 0 -50.167 4.16699 -72.5 12.5s-41.5 20 -57.5 35s-28.667 32.667 -38 53s-14 42.5 -14 66.5c0 26 5.5 49.667 16.5 71s26.5 39.666 46.5 54.999s43.667 27.333 71 36s57.666 13 90.999 13c22 0 43.333 -1.83301 64 -5.5s38.667 -9.16699 54 -16.5v24
c0 60.667 -35 91 -105 91c-28.667 0 -56 -4.83301 -82 -14.5s-53.333 -24.167 -82 -43.5l-47 100c34.667 22.667 70.667 39.667 108 51s77 17 119 17c79.333 0 140.666 -18.667 183.999 -56s65 -92 65 -164v-135c0 -16 3 -27.167 9 -33.5s16.667 -10.166 32 -11.499v-135
c-54.667 -32 -82 -61.667 -82 -89c0 -11.333 5.33301 -20.5 16 -27.5s27 -10.833 49 -11.5zM251.001 105.001c17.333 0 34.166 2.99805 50.499 8.99805s29.833 14 40.5 24c15.333 12 23 24.667 23 38v50c-14 5.33301 -29.167 9.5 -45.5 12.5s-31.5 4.5 -45.5 4.5
c-29.333 0 -53.5 -6.66699 -72.5 -20s-28.5 -30.666 -28.5 -51.999c0 -19.333 7.33301 -35.166 22 -47.499s33.334 -18.5 56.001 -18.5z" />
    <glyph glyph-name="Cacute" unicode="&#x106;" horiz-adv-x="663" 
d="M414 757l-102 28l52 130h145zM27 361c0 42.667 7.66602 85.167 22.999 127.5s37.666 80.166 66.999 113.499s65.166 60.333 107.499 81s90.5 31 144.5 31c63.333 0 118.333 -14.333 165 -43s81.334 -66 104.001 -112l-126 -88
c-7.33301 18.667 -16.666 34.167 -27.999 46.5s-23.666 22.333 -36.999 30s-27.166 13 -41.499 16s-27.833 4.5 -40.5 4.5c-29.333 0 -54.666 -6.33301 -75.999 -19s-39 -29 -53 -49s-24.5 -42.667 -31.5 -68s-10.5 -51 -10.5 -77c0 -28 4.16699 -55 12.5 -81s20 -49 35 -69
s33.167 -35.833 54.5 -47.5s45 -17.5 71 -17.5c13.333 0 27.166 1.83301 41.499 5.5s28.166 9.33398 41.499 17.001s25.333 17.667 36 30s19.334 27.5 26.001 45.5l135 -79c-10.667 -26 -26.167 -49.333 -46.5 -70s-43.5 -38 -69.5 -52s-53.5 -24.667 -82.5 -32
s-57.5 -11 -85.5 -11c-49.333 0 -94.5 10.5 -135.5 31.5s-76.333 48.833 -106 83.5s-52.834 74 -69.501 118s-25 88.667 -25 134z" />
    <glyph glyph-name="cacute" unicode="&#x107;" horiz-adv-x="570" 
d="M351 572l-102 28l52 130h145zM24 263c0 36 6.33105 70.5 18.998 103.5s31 62 55 87s53.5 44.833 88.5 59.5s74.833 22 119.5 22c60.667 0 111.667 -12.833 153 -38.5s72.333 -59.167 93 -100.5l-156 -47c-20.667 33.333 -51 50 -91 50
c-33.333 0 -61.166 -12.333 -83.499 -37s-33.5 -57.667 -33.5 -99c0 -20.667 3 -39.5 9 -56.5s14.333 -31.5 25 -43.5s23.167 -21.333 37.5 -28s29.5 -10 45.5 -10c20 0 38.333 4.83301 55 14.5s29 22.167 37 37.5l156 -48c-19.333 -40.667 -50.166 -74 -92.499 -100
s-93.833 -39 -154.5 -39c-44 0 -83.5 7.5 -118.5 22.5s-64.667 35 -89 60s-42.833 54 -55.5 87s-19 67.5 -19 103.5z" />
    <glyph glyph-name="Ccircumflex" unicode="&#x108;" horiz-adv-x="663" 
d="M201 807l110 108h115l109 -108l-82 -36l-85 63l-85 -63zM27 361c0 42.667 7.66602 85.167 22.999 127.5s37.666 80.166 66.999 113.499s65.166 60.333 107.499 81s90.5 31 144.5 31c63.333 0 118.333 -14.333 165 -43s81.334 -66 104.001 -112l-126 -88
c-7.33301 18.667 -16.666 34.167 -27.999 46.5s-23.666 22.333 -36.999 30s-27.166 13 -41.499 16s-27.833 4.5 -40.5 4.5c-29.333 0 -54.666 -6.33301 -75.999 -19s-39 -29 -53 -49s-24.5 -42.667 -31.5 -68s-10.5 -51 -10.5 -77c0 -28 4.16699 -55 12.5 -81s20 -49 35 -69
s33.167 -35.833 54.5 -47.5s45 -17.5 71 -17.5c13.333 0 27.166 1.83301 41.499 5.5s28.166 9.33398 41.499 17.001s25.333 17.667 36 30s19.334 27.5 26.001 45.5l135 -79c-10.667 -26 -26.167 -49.333 -46.5 -70s-43.5 -38 -69.5 -52s-53.5 -24.667 -82.5 -32
s-57.5 -11 -85.5 -11c-49.333 0 -94.5 10.5 -135.5 31.5s-76.333 48.833 -106 83.5s-52.834 74 -69.501 118s-25 88.667 -25 134z" />
    <glyph glyph-name="ccircumflex" unicode="&#x109;" horiz-adv-x="570" 
d="M138 622l110 108h115l109 -108l-82 -36l-85 63l-85 -63zM24 263c0 36 6.33105 70.5 18.998 103.5s31 62 55 87s53.5 44.833 88.5 59.5s74.833 22 119.5 22c60.667 0 111.667 -12.833 153 -38.5s72.333 -59.167 93 -100.5l-156 -47c-20.667 33.333 -51 50 -91 50
c-33.333 0 -61.166 -12.333 -83.499 -37s-33.5 -57.667 -33.5 -99c0 -20.667 3 -39.5 9 -56.5s14.333 -31.5 25 -43.5s23.167 -21.333 37.5 -28s29.5 -10 45.5 -10c20 0 38.333 4.83301 55 14.5s29 22.167 37 37.5l156 -48c-19.333 -40.667 -50.166 -74 -92.499 -100
s-93.833 -39 -154.5 -39c-44 0 -83.5 7.5 -118.5 22.5s-64.667 35 -89 60s-42.833 54 -55.5 87s-19 67.5 -19 103.5z" />
    <glyph glyph-name="Cdotaccent" unicode="&#x10a;" horiz-adv-x="663" 
d="M27 361c0 42.667 7.66602 85.167 22.999 127.5s37.666 80.166 66.999 113.499s65.166 60.333 107.499 81s90.5 31 144.5 31c63.333 0 118.333 -14.333 165 -43s81.334 -66 104.001 -112l-126 -88c-7.33301 18.667 -16.666 34.167 -27.999 46.5s-23.666 22.333 -36.999 30
s-27.166 13 -41.499 16s-27.833 4.5 -40.5 4.5c-29.333 0 -54.666 -6.33301 -75.999 -19s-39 -29 -53 -49s-24.5 -42.667 -31.5 -68s-10.5 -51 -10.5 -77c0 -28 4.16699 -55 12.5 -81s20 -49 35 -69s33.167 -35.833 54.5 -47.5s45 -17.5 71 -17.5
c13.333 0 27.166 1.83301 41.499 5.5s28.166 9.33398 41.499 17.001s25.333 17.667 36 30s19.334 27.5 26.001 45.5l135 -79c-10.667 -26 -26.167 -49.333 -46.5 -70s-43.5 -38 -69.5 -52s-53.5 -24.667 -82.5 -32s-57.5 -11 -85.5 -11c-49.333 0 -94.5 10.5 -135.5 31.5
s-76.333 48.833 -106 83.5s-52.834 74 -69.501 118s-25 88.667 -25 134zM296.999 778v137h144v-137h-144z" />
    <glyph glyph-name="cdotaccent" unicode="&#x10b;" horiz-adv-x="570" 
d="M24 263c0 36 6.33105 70.5 18.998 103.5s31 62 55 87s53.5 44.833 88.5 59.5s74.833 22 119.5 22c60.667 0 111.667 -12.833 153 -38.5s72.333 -59.167 93 -100.5l-156 -47c-20.667 33.333 -51 50 -91 50c-33.333 0 -61.166 -12.333 -83.499 -37s-33.5 -57.667 -33.5 -99
c0 -20.667 3 -39.5 9 -56.5s14.333 -31.5 25 -43.5s23.167 -21.333 37.5 -28s29.5 -10 45.5 -10c20 0 38.333 4.83301 55 14.5s29 22.167 37 37.5l156 -48c-19.333 -40.667 -50.166 -74 -92.499 -100s-93.833 -39 -154.5 -39c-44 0 -83.5 7.5 -118.5 22.5s-64.667 35 -89 60
s-42.833 54 -55.5 87s-19 67.5 -19 103.5zM233.998 593v137h144v-137h-144z" />
    <glyph glyph-name="Ccaron" unicode="&#x10c;" horiz-adv-x="663" 
d="M283 915l85 -63l85 63l82 -37l-109 -107h-115l-110 107zM27 361c0 42.667 7.66602 85.167 22.999 127.5s37.666 80.166 66.999 113.499s65.166 60.333 107.499 81s90.5 31 144.5 31c63.333 0 118.333 -14.333 165 -43s81.334 -66 104.001 -112l-126 -88
c-7.33301 18.667 -16.666 34.167 -27.999 46.5s-23.666 22.333 -36.999 30s-27.166 13 -41.499 16s-27.833 4.5 -40.5 4.5c-29.333 0 -54.666 -6.33301 -75.999 -19s-39 -29 -53 -49s-24.5 -42.667 -31.5 -68s-10.5 -51 -10.5 -77c0 -28 4.16699 -55 12.5 -81s20 -49 35 -69
s33.167 -35.833 54.5 -47.5s45 -17.5 71 -17.5c13.333 0 27.166 1.83301 41.499 5.5s28.166 9.33398 41.499 17.001s25.333 17.667 36 30s19.334 27.5 26.001 45.5l135 -79c-10.667 -26 -26.167 -49.333 -46.5 -70s-43.5 -38 -69.5 -52s-53.5 -24.667 -82.5 -32
s-57.5 -11 -85.5 -11c-49.333 0 -94.5 10.5 -135.5 31.5s-76.333 48.833 -106 83.5s-52.834 74 -69.501 118s-25 88.667 -25 134z" />
    <glyph glyph-name="ccaron" unicode="&#x10d;" horiz-adv-x="570" 
d="M220 730l85 -63l85 63l82 -37l-109 -107h-115l-110 107zM24 263c0 36 6.33105 70.5 18.998 103.5s31 62 55 87s53.5 44.833 88.5 59.5s74.833 22 119.5 22c60.667 0 111.667 -12.833 153 -38.5s72.333 -59.167 93 -100.5l-156 -47c-20.667 33.333 -51 50 -91 50
c-33.333 0 -61.166 -12.333 -83.499 -37s-33.5 -57.667 -33.5 -99c0 -20.667 3 -39.5 9 -56.5s14.333 -31.5 25 -43.5s23.167 -21.333 37.5 -28s29.5 -10 45.5 -10c20 0 38.333 4.83301 55 14.5s29 22.167 37 37.5l156 -48c-19.333 -40.667 -50.166 -74 -92.499 -100
s-93.833 -39 -154.5 -39c-44 0 -83.5 7.5 -118.5 22.5s-64.667 35 -89 60s-42.833 54 -55.5 87s-19 67.5 -19 103.5z" />
    <glyph glyph-name="Dcaron" unicode="&#x10e;" horiz-adv-x="717" 
d="M239 915l85 -63l85 63l82 -37l-109 -107h-115l-110 107zM68 0v710h265c58.667 0 110 -9.33301 154 -28s80.833 -44 110.5 -76s52 -69.5 67 -112.5s22.5 -88.833 22.5 -137.5c0 -54 -8.33301 -102.833 -25 -146.5s-40.5 -81 -71.5 -112s-68.333 -55 -112 -72
s-92.167 -25.5 -145.5 -25.5h-265zM520 356c0 31.333 -4.16797 59.8311 -12.501 85.498s-20.5 47.834 -36.5 66.501s-35.667 33 -59 43s-49.666 15 -78.999 15h-101v-422h101c30 0 56.667 5.33301 80 16s42.833 25.5 58.5 44.5s27.667 41.333 36 67s12.5 53.834 12.5 84.501
z" />
    <glyph glyph-name="dcaron" unicode="&#x10f;" horiz-adv-x="660" 
d="M711 572l-102 28l52 130h145zM273 -10c-36 0 -69.168 6.83203 -99.501 20.499s-56.5 32.834 -78.5 57.501s-39.167 53.5 -51.5 86.5s-18.5 69.167 -18.5 108.5c0 38 5.66699 73.667 17 107s27.333 62.166 48 86.499s45.167 43.5 73.5 57.5s59.5 21 93.5 21
c36 0 69 -8.66699 99 -26s53 -40.666 69 -69.999v291h160v-550c0 -16 3 -27.167 9 -33.5s16.667 -10.166 32 -11.499v-135c-16.667 -3.33301 -31.167 -5.5 -43.5 -6.5s-23.5 -1.5 -33.5 -1.5c-56 1.33301 -88 23.666 -96 66.999l-3 28
c-19.333 -32.667 -44.666 -57 -75.999 -73s-65 -24 -101 -24zM315.999 124.999c22 0 43.001 6.50195 63.001 19.502s35.667 30.833 47 53.5v110c-10 26.667 -26.167 48.5 -48.5 65.5s-45.5 25.5 -69.5 25.5c-17.333 0 -33.166 -3.83301 -47.499 -11.5
s-26.833 -17.834 -37.5 -30.501s-18.834 -27.334 -24.501 -44.001s-8.5 -34.334 -8.5 -53.001c0 -39.333 11.667 -71.666 35 -96.999s53.666 -38 90.999 -38z" />
    <glyph glyph-name="Dcroat" unicode="&#x110;" horiz-adv-x="722" 
d="M72 0v298h-43v118h43v294h265c58.667 0 110 -9.33301 154 -28s80.833 -44 110.5 -76s52 -69.5 67 -112.5s22.5 -88.833 22.5 -137.5c0 -54 -8.33301 -102.833 -25 -146.5s-40.5 -81 -71.5 -112s-68.333 -55 -112 -72s-92.167 -25.5 -145.5 -25.5h-265zM524 356
c0 31.333 -4.16797 59.8311 -12.501 85.498s-20.5 47.834 -36.5 66.501s-35.667 33 -59 43s-49.666 15 -78.999 15h-101v-150h128v-118h-128v-154h101c30 0 56.667 5.33301 80 16s42.833 25.5 58.5 44.5s27.667 41.333 36 67s12.5 53.834 12.5 84.501z" />
    <glyph glyph-name="dcroat" unicode="&#x111;" horiz-adv-x="660" 
d="M273 -10c-36 0 -69.168 6.83203 -99.501 20.499s-56.5 32.834 -78.5 57.501s-39.167 53.5 -51.5 86.5s-18.5 69.167 -18.5 108.5c0 38 5.66699 73.667 17 107s27.333 62.166 48 86.499s45.167 43.5 73.5 57.5s59.5 21 93.5 21c36 0 69 -8.66699 99 -26
s53 -40.666 69 -69.999v149h-94v94h94v48h160v-48h61v-94h-61v-408c0 -16 3 -27.167 9 -33.5s16.667 -10.166 32 -11.499v-135c-16.667 -3.33301 -31.167 -5.5 -43.5 -6.5s-23.5 -1.5 -33.5 -1.5c-56 1.33301 -88 23.666 -96 66.999l-3 28
c-19.333 -32.667 -44.666 -57 -75.999 -73s-65 -24 -101 -24zM315.999 124.999c22 0 43.001 6.50195 63.001 19.502s35.667 30.833 47 53.5v110c-10 26.667 -26.167 48.5 -48.5 65.5s-45.5 25.5 -69.5 25.5c-17.333 0 -33.166 -3.83301 -47.499 -11.5
s-26.833 -17.834 -37.5 -30.501s-18.834 -27.334 -24.501 -44.001s-8.5 -34.334 -8.5 -53.001c0 -39.333 11.667 -71.666 35 -96.999s53.666 -38 90.999 -38z" />
    <glyph glyph-name="Emacron" unicode="&#x112;" horiz-adv-x="601" 
d="M567 144v-144h-499v710h490v-144h-326v-138h280v-133h-280v-151h335zM170 806v97h304v-97h-304z" />
    <glyph glyph-name="emacron" unicode="&#x113;" horiz-adv-x="604" 
d="M306 -10c-44 0 -83.501 7.16797 -118.501 21.501s-64.667 33.833 -89 58.5s-42.833 53.167 -55.5 85.5s-19 66.166 -19 101.499c0 38 6.33301 73.833 19 107.5s31 63.167 55 88.5s53.5 45.333 88.5 60s74.833 22 119.5 22s84.334 -7.33301 119.001 -22s64 -34.5 88 -59.5
s42.167 -53.833 54.5 -86.5s18.5 -67 18.5 -103c0 -9.33301 -0.333008 -18.5 -1 -27.5s-1.66699 -16.833 -3 -23.5h-388c2.66699 -35.333 15.5 -62.166 38.5 -80.499s49.167 -27.5 78.5 -27.5c23.333 0 45.833 5.66699 67.5 17s36.167 26.666 43.5 45.999l136 -38
c-20.667 -41.333 -52.667 -75 -96 -101s-95.333 -39 -156 -39zM416.999 312.001c-3.33301 33.333 -15.334 59.668 -36.001 79.001s-46.334 29 -77.001 29c-31.333 0 -57.166 -9.83301 -77.499 -29.5s-32.166 -45.834 -35.499 -78.501h226zM152.998 621.003v97h304v-97h-304z
" />
    <glyph glyph-name="Ebreve" unicode="&#x114;" horiz-adv-x="601" 
d="M567 144v-144h-499v710h490v-144h-326v-138h280v-133h-280v-151h335zM321 838c15.333 0 28.833 7.16699 40.5 21.5s18.5 32.833 20.5 55.5h83c0 -21.333 -3.5 -41 -10.5 -59s-16.833 -33.5 -29.5 -46.5s-27.834 -23.167 -45.501 -30.5s-37.167 -11 -58.5 -11
s-40.666 3.66699 -57.999 11s-32.5 17.5 -45.5 30.5s-23 28.5 -30 46.5s-10.5 37.667 -10.5 59h85c0 -21.333 5.83301 -39.5 17.5 -54.5s25.5 -22.5 41.5 -22.5z" />
    <glyph glyph-name="ebreve" unicode="&#x115;" horiz-adv-x="604" 
d="M306 -10c-44 0 -83.501 7.16797 -118.501 21.501s-64.667 33.833 -89 58.5s-42.833 53.167 -55.5 85.5s-19 66.166 -19 101.499c0 38 6.33301 73.833 19 107.5s31 63.167 55 88.5s53.5 45.333 88.5 60s74.833 22 119.5 22s84.334 -7.33301 119.001 -22s64 -34.5 88 -59.5
s42.167 -53.833 54.5 -86.5s18.5 -67 18.5 -103c0 -9.33301 -0.333008 -18.5 -1 -27.5s-1.66699 -16.833 -3 -23.5h-388c2.66699 -35.333 15.5 -62.166 38.5 -80.499s49.167 -27.5 78.5 -27.5c23.333 0 45.833 5.66699 67.5 17s36.167 26.666 43.5 45.999l136 -38
c-20.667 -41.333 -52.667 -75 -96 -101s-95.333 -39 -156 -39zM416.999 312.001c-3.33301 33.333 -15.334 59.668 -36.001 79.001s-46.334 29 -77.001 29c-31.333 0 -57.166 -9.83301 -77.499 -29.5s-32.166 -45.834 -35.499 -78.501h226zM303.998 653.003
c15.333 0 28.833 7.16699 40.5 21.5s18.5 32.833 20.5 55.5h83c0 -21.333 -3.5 -41 -10.5 -59s-16.833 -33.5 -29.5 -46.5s-27.834 -23.167 -45.501 -30.5s-37.167 -11 -58.5 -11s-40.666 3.66699 -57.999 11s-32.5 17.5 -45.5 30.5s-23 28.5 -30 46.5
s-10.5 37.667 -10.5 59h85c0 -21.333 5.83301 -39.5 17.5 -54.5s25.5 -22.5 41.5 -22.5z" />
    <glyph glyph-name="Edotaccent" unicode="&#x116;" horiz-adv-x="601" 
d="M567 144v-144h-499v710h490v-144h-326v-138h280v-133h-280v-151h335zM250 778v137h144v-137h-144z" />
    <glyph glyph-name="edotaccent" unicode="&#x117;" horiz-adv-x="604" 
d="M306 -10c-44 0 -83.501 7.16797 -118.501 21.501s-64.667 33.833 -89 58.5s-42.833 53.167 -55.5 85.5s-19 66.166 -19 101.499c0 38 6.33301 73.833 19 107.5s31 63.167 55 88.5s53.5 45.333 88.5 60s74.833 22 119.5 22s84.334 -7.33301 119.001 -22s64 -34.5 88 -59.5
s42.167 -53.833 54.5 -86.5s18.5 -67 18.5 -103c0 -9.33301 -0.333008 -18.5 -1 -27.5s-1.66699 -16.833 -3 -23.5h-388c2.66699 -35.333 15.5 -62.166 38.5 -80.499s49.167 -27.5 78.5 -27.5c23.333 0 45.833 5.66699 67.5 17s36.167 26.666 43.5 45.999l136 -38
c-20.667 -41.333 -52.667 -75 -96 -101s-95.333 -39 -156 -39zM416.999 312.001c-3.33301 33.333 -15.334 59.668 -36.001 79.001s-46.334 29 -77.001 29c-31.333 0 -57.166 -9.83301 -77.499 -29.5s-32.166 -45.834 -35.499 -78.501h226zM232.998 593.003v137h144v-137
h-144z" />
    <glyph glyph-name="Eogonek" unicode="&#x118;" horiz-adv-x="601" 
d="M567 144v-143.999h-211c-27.333 -15.333 -47.5 -30.5 -60.5 -45.5s-19.5 -29.167 -19.5 -42.5c0 -11.333 5.33301 -20.5 16 -27.5s27 -10.833 49 -11.5l-31 -77c-40 5.33301 -69.667 16.666 -89 33.999s-29 37 -29 59c0 19.333 6.83301 38.333 20.5 57
s34.5 36.667 62.5 54h-207v710h490v-144h-326v-138h280v-133h-280v-151h335z" />
    <glyph glyph-name="eogonek" unicode="&#x119;" horiz-adv-x="606" 
d="M338 -205c-40 5.33301 -69.666 16.668 -88.999 34.001s-29 37 -29 59c0 17.333 5.66699 34.833 17 52.5s28.666 34.5 51.999 50.5c-41.333 2 -78.333 10.5 -111 25.5s-60.334 34.667 -83.001 59s-40 52.166 -52 83.499s-18 64 -18 98c0 38 6.33301 73.833 19 107.5
s31 63.167 55 88.5s53.5 45.333 88.5 60s74.833 22 119.5 22s84.334 -7.33301 119.001 -22s64 -34.5 88 -59.5s42.167 -53.833 54.5 -86.5s18.5 -67 18.5 -103c0 -9.33301 -0.333008 -18.5 -1 -27.5s-1.66699 -16.833 -3 -23.5h-388
c2.66699 -35.333 15.5 -62.166 38.5 -80.499s49.167 -27.5 78.5 -27.5c23.333 0 45.833 5.66699 67.5 17s36.167 26.666 43.5 45.999l136 -38c-16 -32 -39 -59.5 -69 -82.5s-65.667 -39.167 -107 -48.5c-52.667 -32 -79 -61.333 -79 -88c0 -11.333 5.33301 -20.5 16 -27.5
s27 -10.833 49 -11.5zM418.001 312.002c-3.33301 33.333 -15.334 59.668 -36.001 79.001s-46.334 29 -77.001 29c-31.333 0 -57.166 -9.83301 -77.499 -29.5s-32.166 -45.834 -35.499 -78.501h226z" />
    <glyph glyph-name="Ecaron" unicode="&#x11a;" horiz-adv-x="601" 
d="M236 915l85 -63l85 63l82 -37l-109 -107h-115l-110 107zM567 144v-144h-499v710h490v-144h-326v-138h280v-133h-280v-151h335z" />
    <glyph glyph-name="ecaron" unicode="&#x11b;" horiz-adv-x="604" 
d="M219 730l85 -63l85 63l82 -37l-109 -107h-115l-110 107zM306 -10c-44 0 -83.501 7.16797 -118.501 21.501s-64.667 33.833 -89 58.5s-42.833 53.167 -55.5 85.5s-19 66.166 -19 101.499c0 38 6.33301 73.833 19 107.5s31 63.167 55 88.5s53.5 45.333 88.5 60
s74.833 22 119.5 22s84.334 -7.33301 119.001 -22s64 -34.5 88 -59.5s42.167 -53.833 54.5 -86.5s18.5 -67 18.5 -103c0 -9.33301 -0.333008 -18.5 -1 -27.5s-1.66699 -16.833 -3 -23.5h-388c2.66699 -35.333 15.5 -62.166 38.5 -80.499s49.167 -27.5 78.5 -27.5
c23.333 0 45.833 5.66699 67.5 17s36.167 26.666 43.5 45.999l136 -38c-20.667 -41.333 -52.667 -75 -96 -101s-95.333 -39 -156 -39zM416.999 312.001c-3.33301 33.333 -15.334 59.668 -36.001 79.001s-46.334 29 -77.001 29c-31.333 0 -57.166 -9.83301 -77.499 -29.5
s-32.166 -45.834 -35.499 -78.501h226z" />
    <glyph glyph-name="Gcircumflex" unicode="&#x11c;" horiz-adv-x="705" 
d="M200 807l110 108h115l109 -108l-82 -36l-85 63l-85 -63zM528 69c-25.333 -25.333 -52.1631 -43.998 -80.4961 -55.998s-59.166 -18 -92.499 -18c-44.667 0 -86.834 10 -126.501 30s-74.334 46.667 -104.001 80s-53.167 72.166 -70.5 116.499s-26 90.5 -26 138.5
c0 48.667 8.66699 94.667 26 138s41.333 81 72 113s66.667 57.333 108 76s86 28 134 28c62.667 0 117.667 -13.833 165 -41.5s82.666 -65.5 105.999 -113.5l-123 -92c-14.667 32 -35.834 56.833 -63.501 74.5s-57.5 26.5 -89.5 26.5c-25.333 0 -48.166 -5.5 -68.499 -16.5
s-38 -26.333 -53 -46s-26.5 -42.5 -34.5 -68.5s-12 -54 -12 -84c0 -30.667 4.33301 -59 13 -85s20.667 -48.5 36 -67.5s33.666 -33.833 54.999 -44.5s44.666 -16 69.999 -16c29.333 0 57.333 7.16699 84 21.5s51.667 36.166 75 65.499v24h-137v119h273v-371h-136v69z" />
    <glyph glyph-name="gcircumflex" unicode="&#x11d;" horiz-adv-x="639" 
d="M179 622l110 108h115l109 -108l-82 -36l-85 63l-85 -63zM258 -2c-34.667 0 -66.167 6.99902 -94.5 20.999s-52.666 33 -72.999 57s-36.166 52 -47.499 84s-17 66.333 -17 103c0 38.667 6 74.5 18 107.5s28.667 61.667 50 86s47 43.5 77 57.5s63 21 99 21
c39.333 0 74 -8.5 104 -25.5s54 -40.5 72 -70.5v86h139v-489c0 -40 -7.5 -76 -22.5 -108s-35.833 -59.167 -62.5 -81.5s-58.667 -39.5 -96 -51.5s-78.333 -18 -123 -18c-56.667 0 -105 9 -145 27s-75 44 -105 78l85 87c19.333 -22 43.5 -39.5 72.5 -52.5
s59.833 -19.5 92.5 -19.5c19.333 0 37.666 2.66699 54.999 8s32.666 13.5 45.999 24.5s23.833 25.333 31.5 43s11.5 38.834 11.5 63.501v51c-16 -29.333 -39.167 -51.5 -69.5 -66.5s-62.833 -22.5 -97.5 -22.5zM314 124.999c24.667 0 46.498 6.83203 65.498 20.499
s34.167 31.167 45.5 52.5v110c-10.667 28 -27 50.167 -49 66.5s-45.333 24.5 -70 24.5c-17.333 0 -33.166 -3.83301 -47.499 -11.5s-26.666 -18 -36.999 -31s-18.333 -28 -24 -45s-8.5 -34.5 -8.5 -52.5c0 -19.333 3.16699 -37.166 9.5 -53.499s15 -30.5 26 -42.5
s24.167 -21.333 39.5 -28s32 -10 50 -10z" />
    <glyph glyph-name="Gbreve" unicode="&#x11e;" horiz-adv-x="705" 
d="M528 69c-25.333 -25.333 -52.1631 -43.998 -80.4961 -55.998s-59.166 -18 -92.499 -18c-44.667 0 -86.834 10 -126.501 30s-74.334 46.667 -104.001 80s-53.167 72.166 -70.5 116.499s-26 90.5 -26 138.5c0 48.667 8.66699 94.667 26 138s41.333 81 72 113
s66.667 57.333 108 76s86 28 134 28c62.667 0 117.667 -13.833 165 -41.5s82.666 -65.5 105.999 -113.5l-123 -92c-14.667 32 -35.834 56.833 -63.501 74.5s-57.5 26.5 -89.5 26.5c-25.333 0 -48.166 -5.5 -68.499 -16.5s-38 -26.333 -53 -46s-26.5 -42.5 -34.5 -68.5
s-12 -54 -12 -84c0 -30.667 4.33301 -59 13 -85s20.667 -48.5 36 -67.5s33.666 -33.833 54.999 -44.5s44.666 -16 69.999 -16c29.333 0 57.333 7.16699 84 21.5s51.667 36.166 75 65.499v24h-137v119h273v-371h-136v69zM367.003 838.002c15.333 0 28.833 7.16699 40.5 21.5
s18.5 32.833 20.5 55.5h83c0 -21.333 -3.5 -41 -10.5 -59s-16.833 -33.5 -29.5 -46.5s-27.834 -23.167 -45.501 -30.5s-37.167 -11 -58.5 -11s-40.666 3.66699 -57.999 11s-32.5 17.5 -45.5 30.5s-23 28.5 -30 46.5s-10.5 37.667 -10.5 59h85
c0 -21.333 5.83301 -39.5 17.5 -54.5s25.5 -22.5 41.5 -22.5z" />
    <glyph glyph-name="gbreve" unicode="&#x11f;" horiz-adv-x="639" 
d="M258 -2c-34.667 0 -66.167 6.99902 -94.5 20.999s-52.666 33 -72.999 57s-36.166 52 -47.499 84s-17 66.333 -17 103c0 38.667 6 74.5 18 107.5s28.667 61.667 50 86s47 43.5 77 57.5s63 21 99 21c39.333 0 74 -8.5 104 -25.5s54 -40.5 72 -70.5v86h139v-489
c0 -40 -7.5 -76 -22.5 -108s-35.833 -59.167 -62.5 -81.5s-58.667 -39.5 -96 -51.5s-78.333 -18 -123 -18c-56.667 0 -105 9 -145 27s-75 44 -105 78l85 87c19.333 -22 43.5 -39.5 72.5 -52.5s59.833 -19.5 92.5 -19.5c19.333 0 37.666 2.66699 54.999 8
s32.666 13.5 45.999 24.5s23.833 25.333 31.5 43s11.5 38.834 11.5 63.501v51c-16 -29.333 -39.167 -51.5 -69.5 -66.5s-62.833 -22.5 -97.5 -22.5zM314 124.999c24.667 0 46.498 6.83203 65.498 20.499s34.167 31.167 45.5 52.5v110c-10.667 28 -27 50.167 -49 66.5
s-45.333 24.5 -70 24.5c-17.333 0 -33.166 -3.83301 -47.499 -11.5s-26.666 -18 -36.999 -31s-18.333 -28 -24 -45s-8.5 -34.5 -8.5 -52.5c0 -19.333 3.16699 -37.166 9.5 -53.499s15 -30.5 26 -42.5s24.167 -21.333 39.5 -28s32 -10 50 -10zM345.998 652.998
c15.333 0 28.833 7.16699 40.5 21.5s18.5 32.833 20.5 55.5h83c0 -21.333 -3.5 -41 -10.5 -59s-16.833 -33.5 -29.5 -46.5s-27.834 -23.167 -45.501 -30.5s-37.167 -11 -58.5 -11s-40.666 3.66699 -57.999 11s-32.5 17.5 -45.5 30.5s-23 28.5 -30 46.5
s-10.5 37.667 -10.5 59h85c0 -21.333 5.83301 -39.5 17.5 -54.5s25.5 -22.5 41.5 -22.5z" />
    <glyph glyph-name="Gdotaccent" unicode="&#x120;" horiz-adv-x="705" 
d="M528 69c-25.333 -25.333 -52.1631 -43.998 -80.4961 -55.998s-59.166 -18 -92.499 -18c-44.667 0 -86.834 10 -126.501 30s-74.334 46.667 -104.001 80s-53.167 72.166 -70.5 116.499s-26 90.5 -26 138.5c0 48.667 8.66699 94.667 26 138s41.333 81 72 113
s66.667 57.333 108 76s86 28 134 28c62.667 0 117.667 -13.833 165 -41.5s82.666 -65.5 105.999 -113.5l-123 -92c-14.667 32 -35.834 56.833 -63.501 74.5s-57.5 26.5 -89.5 26.5c-25.333 0 -48.166 -5.5 -68.499 -16.5s-38 -26.333 -53 -46s-26.5 -42.5 -34.5 -68.5
s-12 -54 -12 -84c0 -30.667 4.33301 -59 13 -85s20.667 -48.5 36 -67.5s33.666 -33.833 54.999 -44.5s44.666 -16 69.999 -16c29.333 0 57.333 7.16699 84 21.5s51.667 36.166 75 65.499v24h-137v119h273v-371h-136v69zM296.003 778.002v137h144v-137h-144z" />
    <glyph glyph-name="gdotaccent" unicode="&#x121;" horiz-adv-x="639" 
d="M258 -2c-34.667 0 -66.167 6.99902 -94.5 20.999s-52.666 33 -72.999 57s-36.166 52 -47.499 84s-17 66.333 -17 103c0 38.667 6 74.5 18 107.5s28.667 61.667 50 86s47 43.5 77 57.5s63 21 99 21c39.333 0 74 -8.5 104 -25.5s54 -40.5 72 -70.5v86h139v-489
c0 -40 -7.5 -76 -22.5 -108s-35.833 -59.167 -62.5 -81.5s-58.667 -39.5 -96 -51.5s-78.333 -18 -123 -18c-56.667 0 -105 9 -145 27s-75 44 -105 78l85 87c19.333 -22 43.5 -39.5 72.5 -52.5s59.833 -19.5 92.5 -19.5c19.333 0 37.666 2.66699 54.999 8
s32.666 13.5 45.999 24.5s23.833 25.333 31.5 43s11.5 38.834 11.5 63.501v51c-16 -29.333 -39.167 -51.5 -69.5 -66.5s-62.833 -22.5 -97.5 -22.5zM314 124.999c24.667 0 46.498 6.83203 65.498 20.499s34.167 31.167 45.5 52.5v110c-10.667 28 -27 50.167 -49 66.5
s-45.333 24.5 -70 24.5c-17.333 0 -33.166 -3.83301 -47.499 -11.5s-26.666 -18 -36.999 -31s-18.333 -28 -24 -45s-8.5 -34.5 -8.5 -52.5c0 -19.333 3.16699 -37.166 9.5 -53.499s15 -30.5 26 -42.5s24.167 -21.333 39.5 -28s32 -10 50 -10zM273.998 592.998v137h144v-137
h-144z" />
    <glyph glyph-name="Gcommaaccent" unicode="&#x122;" horiz-adv-x="705" 
d="M261 -138c25.333 0 38 9.00098 38 27.001v64h130v-70c0 -19.333 -4.33301 -34.5 -13 -45.5s-20.5 -19.333 -35.5 -25s-32.667 -9.33398 -53 -11.001s-42.5 -2.5 -66.5 -2.5v63zM528 69.001c-25.333 -25.333 -52.1631 -43.998 -80.4961 -55.998s-59.166 -18 -92.499 -18
c-44.667 0 -86.834 10 -126.501 30s-74.334 46.667 -104.001 80s-53.167 72.166 -70.5 116.499s-26 90.5 -26 138.5c0 48.667 8.66699 94.667 26 138s41.333 81 72 113s66.667 57.333 108 76s86 28 134 28c62.667 0 117.667 -13.833 165 -41.5s82.666 -65.5 105.999 -113.5
l-123 -92c-14.667 32 -35.834 56.833 -63.501 74.5s-57.5 26.5 -89.5 26.5c-25.333 0 -48.166 -5.5 -68.499 -16.5s-38 -26.333 -53 -46s-26.5 -42.5 -34.5 -68.5s-12 -54 -12 -84c0 -30.667 4.33301 -59 13 -85s20.667 -48.5 36 -67.5s33.666 -33.833 54.999 -44.5
s44.666 -16 69.999 -16c29.333 0 57.333 7.16699 84 21.5s51.667 36.166 75 65.499v24h-137v119h273v-371h-136v69z" />
    <glyph glyph-name="gcommaaccent" unicode="&#x123;" horiz-adv-x="639" 
d="M392 572l-102 28l52 130h145zM258 -2c-34.667 0 -66.167 6.99902 -94.5 20.999s-52.666 33 -72.999 57s-36.166 52 -47.499 84s-17 66.333 -17 103c0 38.667 6 74.5 18 107.5s28.667 61.667 50 86s47 43.5 77 57.5s63 21 99 21c39.333 0 74 -8.5 104 -25.5
s54 -40.5 72 -70.5v86h139v-489c0 -40 -7.5 -76 -22.5 -108s-35.833 -59.167 -62.5 -81.5s-58.667 -39.5 -96 -51.5s-78.333 -18 -123 -18c-56.667 0 -105 9 -145 27s-75 44 -105 78l85 87c19.333 -22 43.5 -39.5 72.5 -52.5s59.833 -19.5 92.5 -19.5
c19.333 0 37.666 2.66699 54.999 8s32.666 13.5 45.999 24.5s23.833 25.333 31.5 43s11.5 38.834 11.5 63.501v51c-16 -29.333 -39.167 -51.5 -69.5 -66.5s-62.833 -22.5 -97.5 -22.5zM314 124.999c24.667 0 46.498 6.83203 65.498 20.499s34.167 31.167 45.5 52.5v110
c-10.667 28 -27 50.167 -49 66.5s-45.333 24.5 -70 24.5c-17.333 0 -33.166 -3.83301 -47.499 -11.5s-26.666 -18 -36.999 -31s-18.333 -28 -24 -45s-8.5 -34.5 -8.5 -52.5c0 -19.333 3.16699 -37.166 9.5 -53.499s15 -30.5 26 -42.5s24.167 -21.333 39.5 -28s32 -10 50 -10
z" />
    <glyph glyph-name="Hcircumflex" unicode="&#x124;" horiz-adv-x="747" 
d="M209 806l110 108h115l109 -108l-82 -36l-85 63l-85 -63zM679 710v-710h-164v291h-283v-291h-164v710h164v-275h283v275h164z" />
    <glyph glyph-name="hcircumflex" unicode="&#x125;" horiz-adv-x="611" 
d="M253 624l94 105h97l93 -105l-70 -35l-72 61l-72 -61zM561 0l-160.001 -0.000976562v295c0 34 -6.83301 59 -20.5 75s-32.167 24 -55.5 24c-9.33301 0 -19.5 -2.16699 -30.5 -6.5s-21.667 -10.666 -32 -18.999s-19.833 -18.166 -28.5 -29.499s-15.334 -24 -20.001 -38
v-301h-160v730h160v-293c19.333 31.333 44.833 55.5 76.5 72.5s66.834 25.5 105.501 25.5c35.333 0 63.833 -6.16699 85.5 -18.5s38.334 -28 50.001 -47s19.5 -40.333 23.5 -64s6 -46.834 6 -69.501v-336z" />
    <glyph glyph-name="Hbar" unicode="&#x126;" horiz-adv-x="754" 
d="M682 710v-93h51v-76h-51v-541h-164v291h-283v-291h-164v541h-50v76h50v93h164v-93h283v93h164zM518 435v106h-283v-106h283z" />
    <glyph glyph-name="hbar" unicode="&#x127;" horiz-adv-x="611" 
d="M561 0l-160.001 -0.000976562v295c0 34 -6.83301 59 -20.5 75s-32.167 24 -55.5 24c-9.33301 0 -19.5 -2.16699 -30.5 -6.5s-21.667 -10.666 -32 -18.999s-19.833 -18.166 -28.5 -29.499s-15.334 -24 -20.001 -38v-301h-160v588h-37v94h37v48h160v-48h117v-94h-117v-151
c19.333 31.333 44.833 55.5 76.5 72.5s66.834 25.5 105.501 25.5c35.333 0 63.833 -6.16699 85.5 -18.5s38.334 -28 50.001 -47s19.5 -40.333 23.5 -64s6 -46.834 6 -69.501v-336z" />
    <glyph glyph-name="Itilde" unicode="&#x128;" horiz-adv-x="300" 
d="M68 0v710h164v-710h-164zM213 773c-15.333 0 -28.832 2.33301 -40.499 7s-22.5 10 -32.5 16s-19.667 11.333 -29 16s-19.666 7 -30.999 7s-20 -2.33301 -26 -7s-10.667 -10 -14 -16s-5.33301 -11.5 -6 -16.5s-1 -7.83301 -1 -8.5h-86c0 7.33301 2.16699 18.833 6.5 34.5
s11.5 31.5 21.5 47.5s23.167 30 39.5 42s36.166 18 59.499 18c16 0 29.667 -2.5 41 -7.5s21.833 -10.5 31.5 -16.5s19.167 -11.5 28.5 -16.5s20 -7.5 32 -7.5c11.333 0 20.5 2.5 27.5 7.5s12.333 10.5 16 16.5s6 11.667 7 17s1.5 8.33301 1.5 9h86
c0 -5.33301 -2.33301 -15.666 -7 -30.999s-12.167 -31.333 -22.5 -48s-23.833 -31.334 -40.5 -44.001s-37.334 -19 -62.001 -19z" />
    <glyph glyph-name="itilde" unicode="&#x129;" 
d="M54 0v525h160v-525h-160zM198 588c-15.333 0 -28.832 2.33301 -40.499 7s-22.5 10 -32.5 16s-19.667 11.333 -29 16s-19.666 7 -30.999 7s-20 -2.33301 -26 -7s-10.667 -10 -14 -16s-5.33301 -11.5 -6 -16.5s-1 -7.83301 -1 -8.5h-86c0 7.33301 2.16699 18.833 6.5 34.5
s11.5 31.5 21.5 47.5s23.167 30 39.5 42s36.166 18 59.499 18c16 0 29.667 -2.5 41 -7.5s21.833 -10.5 31.5 -16.5s19.167 -11.5 28.5 -16.5s20 -7.5 32 -7.5c11.333 0 20.5 2.5 27.5 7.5s12.333 10.5 16 16.5s6 11.667 7 17s1.5 8.33301 1.5 9h86
c0 -5.33301 -2.33301 -15.666 -7 -30.999s-12.167 -31.333 -22.5 -48s-23.833 -31.334 -40.5 -44.001s-37.334 -19 -62.001 -19z" />
    <glyph glyph-name="Imacron" unicode="&#x12a;" horiz-adv-x="300" 
d="M68 0v710h164v-710h-164zM-1 806v97h304v-97h-304z" />
    <glyph glyph-name="imacron" unicode="&#x12b;" 
d="M54 0v525h160v-525h-160zM-17 621v97h304v-97h-304z" />
    <glyph glyph-name="Ibreve" unicode="&#x12c;" horiz-adv-x="300" 
d="M68 0v710h164v-710h-164zM149 838c15.333 0 28.833 7.16699 40.5 21.5s18.5 32.833 20.5 55.5h83c0 -21.333 -3.5 -41 -10.5 -59s-16.833 -33.5 -29.5 -46.5s-27.834 -23.167 -45.501 -30.5s-37.167 -11 -58.5 -11s-40.666 3.66699 -57.999 11s-32.5 17.5 -45.5 30.5
s-23 28.5 -30 46.5s-10.5 37.667 -10.5 59h85c0 -21.333 5.83301 -39.5 17.5 -54.5s25.5 -22.5 41.5 -22.5z" />
    <glyph glyph-name="ibreve" unicode="&#x12d;" 
d="M54 0v525h160v-525h-160zM134 653c15.333 0 28.833 7.16699 40.5 21.5s18.5 32.833 20.5 55.5h83c0 -21.333 -3.5 -41 -10.5 -59s-16.833 -33.5 -29.5 -46.5s-27.834 -23.167 -45.501 -30.5s-37.167 -11 -58.5 -11s-40.666 3.66699 -57.999 11s-32.5 17.5 -45.5 30.5
s-23 28.5 -30 46.5s-10.5 37.667 -10.5 59h85c0 -21.333 5.83301 -39.5 17.5 -54.5s25.5 -22.5 41.5 -22.5z" />
    <glyph glyph-name="Iogonek" unicode="&#x12e;" horiz-adv-x="300" 
d="M184 -205c-40 5.33301 -69.667 16.667 -89 34s-29 37 -29 59c0 19.333 7 38.5 21 57.5s35 37.167 63 54.5h-82v710h164v-710c-54.667 -32 -82 -61.667 -82 -89c0 -11.333 5.33301 -20.5 16 -27.5s27 -10.833 49 -11.5l-31 -77v0z" />
    <glyph glyph-name="iogonek" unicode="&#x12f;" horiz-adv-x="269" 
d="M166 -205c-40 5.33301 -69.667 16.667 -89 34s-29 37 -29 59c0 19.333 7 38.5 21 57.5s35 37.167 63 54.5h-78v525h160v-525c-54.667 -32 -82 -61.667 -82 -89c0 -11.333 5.33301 -20.5 16 -27.5s27 -10.833 49 -11.5zM54 585.001v145h160v-145h-160z" />
    <glyph glyph-name="Idotaccent" unicode="&#x130;" horiz-adv-x="300" 
d="M68 0v710h164v-710h-164zM78 778v137h144v-137h-144z" />
    <glyph glyph-name="dotlessi" unicode="&#x131;" 
d="M54 0v525h160v-525h-160z" />
    <glyph glyph-name="IJ" unicode="&#x132;" horiz-adv-x="798" 
d="M68 0v710h164v-710h-164zM344 167c6.66699 -5.33301 20.8311 -12.001 42.498 -20.001s46.834 -12 75.501 -12c24.667 0 44.334 4.16699 59.001 12.5s26 21.166 34 38.499s13.167 39.5 15.5 66.5s3.5 59.167 3.5 96.5v361h164v-361c0 -54 -2.83301 -103.167 -8.5 -147.5
s-18 -82.166 -37 -113.499s-46.833 -55.666 -83.5 -72.999s-85.667 -26 -147 -26c-60 0 -111.333 14.667 -154 44z" />
    <glyph glyph-name="ij" unicode="&#x133;" horiz-adv-x="537" 
d="M54 0v525h160v-525h-160zM54 585v145h160v-145h-160zM289 -202c-26 0 -51.001 4.16602 -75.001 12.499s-45.667 20.833 -65 37.5l67 109c6.66699 -7.33301 14.667 -12.666 24 -15.999s19 -5 29 -5c15.333 0 28 5 38 15s15 23.333 15 40v534h160v-522
c0 -30 -4.83301 -57.667 -14.5 -83s-23.167 -47 -40.5 -65s-37.666 -32 -60.999 -42s-49 -15 -77 -15zM321.999 584.999v145h160v-145h-160z" />
    <glyph glyph-name="Jcircumflex" unicode="&#x134;" horiz-adv-x="498" 
d="M191 807l110 108h115l109 -108l-82 -36l-85 63l-85 -63zM44 167c6.66699 -5.33301 20.8311 -12.001 42.498 -20.001s46.834 -12 75.501 -12c24.667 0 44.334 4.16699 59.001 12.5s26 21.166 34 38.499s13.167 39.5 15.5 66.5s3.5 59.167 3.5 96.5v361h164v-361
c0 -54 -2.83301 -103.167 -8.5 -147.5s-18 -82.166 -37 -113.499s-46.833 -55.666 -83.5 -72.999s-85.667 -26 -147 -26c-60 0 -111.333 14.667 -154 44z" />
    <glyph glyph-name="jcircumflex" unicode="&#x135;" 
d="M21 -202c-26 0 -51.001 4.16602 -75.001 12.499s-45.667 20.833 -65 37.5l67 109c6.66699 -7.33301 14.667 -12.666 24 -15.999s19 -5 29 -5c15.333 0 28 5 38 15s15 23.333 15 40v534h160v-522c0 -30 -4.83301 -57.667 -14.5 -83s-23.167 -47 -40.5 -65
s-37.666 -32 -60.999 -42s-49 -15 -77 -15zM-33.001 621.999l110 108h115l109 -108l-82 -36l-85 63l-85 -63z" />
    <glyph glyph-name="Kcommaaccent" unicode="&#x136;" horiz-adv-x="677" 
d="M256 -138c25.333 0 38 9.00098 38 27.001v64h130v-70c0 -19.333 -4.33301 -34.5 -13 -45.5s-20.5 -19.333 -35.5 -25s-32.667 -9.33398 -53 -11.001s-42.5 -2.5 -66.5 -2.5v63zM68 0.000976562v710h164v-320l274 320h170l-266 -317l284 -393h-173l-208 301l-81 -88v-213
h-164z" />
    <glyph glyph-name="kcommaaccent" unicode="&#x137;" horiz-adv-x="568" 
d="M189 -138c25.333 0 38 9.00098 38 27.001v64h130v-70c0 -19.333 -4.33301 -34.5 -13 -45.5s-20.5 -19.333 -35.5 -25s-32.667 -9.33398 -53 -11.001s-42.5 -2.5 -66.5 -2.5v63zM407 0.000976562l-137 211l-56 -58v-153h-160v730h160v-423l178 218h170l-189 -226l204 -299
h-170z" />
    <glyph glyph-name="kgreenlandic" unicode="&#x138;" horiz-adv-x="568" 
d="M407 0l-137 211l-56 -58v-153h-160v525h160v-218l178 218h170l-189 -226l204 -299h-170z" />
    <glyph glyph-name="Lacute" unicode="&#x139;" horiz-adv-x="589" 
d="M410 757l-102 28l52 130h145zM68 0v710h164v-566h344v-144h-508z" />
    <glyph glyph-name="lacute" unicode="&#x13a;" horiz-adv-x="339" 
d="M177 762l-102 28l52 130h145zM53 730l160 -0.000976562v-534c0 -40 17.333 -60 52 -60c7.33301 0 15.833 1.33301 25.5 4s18.5 6 26.5 10l21 -129c-20 -9.33301 -43 -16.666 -69 -21.999s-50 -8 -72 -8c-46 0 -81.5 12 -106.5 36s-37.5 58.667 -37.5 104v599z" />
    <glyph glyph-name="Lcommaaccent" unicode="&#x13b;" horiz-adv-x="589" 
d="M232 -138c25.333 0 38 9.00098 38 27.001v64h130v-70c0 -19.333 -4.33301 -34.5 -13 -45.5s-20.5 -19.333 -35.5 -25s-32.667 -9.33398 -53 -11.001s-42.5 -2.5 -66.5 -2.5v63zM68 0.000976562v710h164v-566h344v-144h-508z" />
    <glyph glyph-name="lcommaaccent" unicode="&#x13c;" horiz-adv-x="339" 
d="M91 -138c25.333 0 38 9.00098 38 27.001v64h130v-70c0 -19.333 -4.33301 -34.5 -13 -45.5s-20.5 -19.333 -35.5 -25s-32.667 -9.33398 -53 -11.001s-42.5 -2.5 -66.5 -2.5v63zM53 730.001l160 -0.000976562v-534c0 -40 17.333 -60 52 -60
c7.33301 0 15.833 1.33301 25.5 4s18.5 6 26.5 10l21 -129c-20 -9.33301 -43 -16.666 -69 -21.999s-50 -8 -72 -8c-46 0 -81.5 12 -106.5 36s-37.5 58.667 -37.5 104v599z" />
    <glyph glyph-name="Lcaron" unicode="&#x13d;" horiz-adv-x="589" 
d="M425 571l-102 28l52 130h145zM68 0v710h164v-566h344v-144h-508z" />
    <glyph glyph-name="lcaron" unicode="&#x13e;" horiz-adv-x="339" 
d="M352 571l-102 28l52 130h145zM53 730l160 -0.000976562v-534c0 -40 17.333 -60 52 -60c7.33301 0 15.833 1.33301 25.5 4s18.5 6 26.5 10l21 -129c-20 -9.33301 -43 -16.666 -69 -21.999s-50 -8 -72 -8c-46 0 -81.5 12 -106.5 36s-37.5 58.667 -37.5 104v599z" />
    <glyph glyph-name="Ldot" unicode="&#x13f;" horiz-adv-x="589" 
d="M68 0v710h164v-566h344v-144h-508zM365 325v166h130v-166h-130z" />
    <glyph glyph-name="ldot" unicode="&#x140;" horiz-adv-x="428" 
d="M53 730l160 -0.000976562v-534c0 -40 17.333 -60 52 -60c7.33301 0 15.833 1.33301 25.5 4s18.5 6 26.5 10l21 -129c-20 -9.33301 -43 -16.666 -69 -21.999s-50 -8 -72 -8c-46 0 -81.5 12 -106.5 36s-37.5 58.667 -37.5 104v599zM282 289.999v166h130v-166h-130z" />
    <glyph glyph-name="Lslash" unicode="&#x141;" horiz-adv-x="599" 
d="M79 0v274l-50 -28l-38 86l88 49v329h164v-236l92 52l38 -86l-130 -74v-222h344v-144h-508z" />
    <glyph glyph-name="lslash" unicode="&#x142;" horiz-adv-x="367" 
d="M77 286l-47 -25.001l-38 86l85 46v337h160v-250l84 46l38 -86l-122 -67v-177c0 -40 17.333 -60 52 -60c7.33301 0 15.833 1.33301 25.5 4s18.5 6 26.5 10l21 -129c-20 -9.33301 -43 -16.666 -69 -21.999s-50 -8 -72 -8c-46 0 -81.5 12 -106.5 36s-37.5 58.667 -37.5 104
v155z" />
    <glyph glyph-name="Nacute" unicode="&#x143;" horiz-adv-x="759" 
d="M424 756l-102 28l52 130h145zM232 406v-406h-164v710h128l331 -417v417h164v-710h-132z" />
    <glyph glyph-name="nacute" unicode="&#x144;" horiz-adv-x="611" 
d="M369 572l-102 28l52 130h145zM561 0l-159.998 -0.00292969v295c0 34.667 -6.5 59.834 -19.5 75.501s-30.167 23.5 -51.5 23.5c-11.333 0 -22.833 -2.33301 -34.5 -7s-22.667 -11.167 -33 -19.5s-19.833 -18.166 -28.5 -29.499s-15.334 -23.666 -20.001 -36.999v-301h-160
v525h144v-88c19.333 31.333 46.666 55.5 81.999 72.5s76 25.5 122 25.5c34 0 61.5 -6.16699 82.5 -18.5s37.167 -28.333 48.5 -48s18.833 -41.167 22.5 -64.5s5.5 -46 5.5 -68v-336z" />
    <glyph glyph-name="Ncommaaccent" unicode="&#x145;" horiz-adv-x="759" 
d="M273 -138c25.333 0 38 9.00098 38 27.001v64h130v-70c0 -19.333 -4.33301 -34.5 -13 -45.5s-20.5 -19.333 -35.5 -25s-32.667 -9.33398 -53 -11.001s-42.5 -2.5 -66.5 -2.5v63zM232 406.001v-406h-164v710h128l331 -417v417h164v-710h-132z" />
    <glyph glyph-name="ncommaaccent" unicode="&#x146;" horiz-adv-x="611" 
d="M201 -138c25.333 0 38 9.00098 38 27.001v64h130v-70c0 -19.333 -4.33301 -34.5 -13 -45.5s-20.5 -19.333 -35.5 -25s-32.667 -9.33398 -53 -11.001s-42.5 -2.5 -66.5 -2.5v63zM561 0.000976562l-159.998 -0.00292969v295c0 34.667 -6.5 59.834 -19.5 75.501
s-30.167 23.5 -51.5 23.5c-11.333 0 -22.833 -2.33301 -34.5 -7s-22.667 -11.167 -33 -19.5s-19.833 -18.166 -28.5 -29.499s-15.334 -23.666 -20.001 -36.999v-301h-160v525h144v-88c19.333 31.333 46.666 55.5 81.999 72.5s76 25.5 122 25.5
c34 0 61.5 -6.16699 82.5 -18.5s37.167 -28.333 48.5 -48s18.833 -41.167 22.5 -64.5s5.5 -46 5.5 -68v-336z" />
    <glyph glyph-name="Ncaron" unicode="&#x147;" horiz-adv-x="759" 
d="M293 914l85 -63l85 63l82 -37l-109 -107h-115l-110 107zM232 406v-406h-164v710h128l331 -417v417h164v-710h-132z" />
    <glyph glyph-name="ncaron" unicode="&#x148;" horiz-adv-x="611" 
d="M238 730l85 -63l85 63l82 -37l-109 -107h-115l-110 107zM561 0l-159.998 -0.00292969v295c0 34.667 -6.5 59.834 -19.5 75.501s-30.167 23.5 -51.5 23.5c-11.333 0 -22.833 -2.33301 -34.5 -7s-22.667 -11.167 -33 -19.5s-19.833 -18.166 -28.5 -29.499
s-15.334 -23.666 -20.001 -36.999v-301h-160v525h144v-88c19.333 31.333 46.666 55.5 81.999 72.5s76 25.5 122 25.5c34 0 61.5 -6.16699 82.5 -18.5s37.167 -28.333 48.5 -48s18.833 -41.167 22.5 -64.5s5.5 -46 5.5 -68v-336z" />
    <glyph glyph-name="napostrophe" unicode="&#x149;" horiz-adv-x="611" 
d="M69 572l-102 28l33 80l-8 50h173zM561 0l-159.998 -0.00292969v295c0 34.667 -6.5 59.834 -19.5 75.501s-30.167 23.5 -51.5 23.5c-11.333 0 -22.833 -2.33301 -34.5 -7s-22.667 -11.167 -33 -19.5s-19.833 -18.166 -28.5 -29.499s-15.334 -23.666 -20.001 -36.999v-301
h-160v525h144v-88c19.333 31.333 46.666 55.5 81.999 72.5s76 25.5 122 25.5c34 0 61.5 -6.16699 82.5 -18.5s37.167 -28.333 48.5 -48s18.833 -41.167 22.5 -64.5s5.5 -46 5.5 -68v-336z" />
    <glyph glyph-name="Eng" unicode="&#x14a;" horiz-adv-x="742" 
d="M232 401v-401h-164v710h126l316 -409v408h164v-711c0 -30 -5 -57.333 -15 -82s-23.833 -45.834 -41.5 -63.501s-38.167 -31.167 -61.5 -40.5s-48.333 -14 -75 -14c-26 0 -51 4.16699 -75 12.5s-45.667 20.833 -65 37.5l67 109
c6.66699 -7.33301 14.667 -12.666 24 -15.999s19 -5 29 -5c15.333 0 28 5 38 15s15 23.333 15 40v44z" />
    <glyph glyph-name="eng" unicode="&#x14b;" horiz-adv-x="610" 
d="M367 -202c-26 0 -50.999 4.16309 -74.999 12.4961s-45.667 20.833 -65 37.5l67 109c6.66699 -7.33301 14.667 -12.666 24 -15.999s19 -5 29 -5c15.333 0 28.166 5 38.499 15s15.5 23.333 15.5 40v304c0 34.667 -6.5 59.834 -19.5 75.501s-30.167 23.5 -51.5 23.5
c-11.333 0 -22.833 -2.33301 -34.5 -7s-22.667 -11.167 -33 -19.5s-19.833 -18.166 -28.5 -29.499s-15.334 -23.666 -20.001 -36.999v-301h-160v525h144v-88c19.333 31.333 46.666 55.5 81.999 72.5s76 25.5 122 25.5c34 0 61.5 -6.16699 82.5 -18.5s37 -28.333 48 -48
s18.333 -41.167 22 -64.5s5.5 -46 5.5 -68v-333c0 -30 -5 -57.667 -15 -83s-23.667 -47 -41 -65s-37.666 -32 -60.999 -42s-48.666 -15 -75.999 -15z" />
    <glyph glyph-name="Omacron" unicode="&#x14c;" horiz-adv-x="734" 
d="M218 806v97h304v-97h-304zM366 -6c-50.667 0 -96.667 10.332 -138 30.999s-76.833 47.834 -106.5 81.501s-52.667 72.167 -69 115.5s-24.5 88 -24.5 134c0 46.667 8.5 91.667 25.5 135s40.667 81.5 71 114.5s66.333 59.333 108 79s87.167 29.5 136.5 29.5
c50.667 0 96.667 -10.333 138 -31s76.833 -48 106.5 -82s52.5 -72.667 68.5 -116s24 -87.333 24 -132c0 -46.667 -8.5 -91.667 -25.5 -135s-40.5 -81.5 -70.5 -114.5s-65.833 -59.5 -107.5 -79.5s-87.167 -30 -136.5 -30zM195 353.999
c0 -27.333 3.83203 -53.835 11.499 -79.502s18.667 -48.5 33 -68.5s32.333 -36 54 -48s46.5 -18 74.5 -18c28.667 0 53.667 6.33301 75 19s39.166 29.167 53.499 49.5s25 43.333 32 69s10.5 51.834 10.5 78.501c0 27.333 -3.83301 53.833 -11.5 79.5
s-18.834 48.334 -33.501 68.001s-32.667 35.334 -54 47.001s-45.666 17.5 -72.999 17.5c-28.667 0 -53.667 -6.16699 -75 -18.5s-39.166 -28.5 -53.499 -48.5s-25.166 -42.833 -32.499 -68.5s-11 -51.834 -11 -78.501z" />
    <glyph glyph-name="omacron" unicode="&#x14d;" horiz-adv-x="609" 
d="M154 621v97h304v-97h-304zM305 -10c-44.667 0 -84.501 7.33301 -119.501 22s-64.5 34.5 -88.5 59.5s-42.167 54 -54.5 87s-18.5 67.5 -18.5 103.5s6.16699 70.5 18.5 103.5s30.5 62 54.5 87s53.5 45 88.5 60s74.833 22.5 119.5 22.5s84.334 -7.5 119.001 -22.5
s64 -35 88 -60s42.333 -54 55 -87s19 -67.5 19 -103.5s-6.16699 -70.5 -18.5 -103.5s-30.5 -62 -54.5 -87s-53.5 -44.833 -88.5 -59.5s-74.833 -22 -119.5 -22zM187.999 262c0 -41.333 10.999 -74.5 32.999 -99.5s50 -37.5 84 -37.5c16.667 0 32 3.33301 46 10
s26.167 16 36.5 28s18.5 26.5 24.5 43.5s9 35.5 9 55.5c0 41.333 -11 74.5 -33 99.5s-49.667 37.5 -83 37.5c-16.667 0 -32.167 -3.33301 -46.5 -10s-26.666 -16 -36.999 -28s-18.5 -26.5 -24.5 -43.5s-9 -35.5 -9 -55.5z" />
    <glyph glyph-name="Obreve" unicode="&#x14e;" horiz-adv-x="734" 
d="M366 -6c-50.667 0 -96.667 10.332 -138 30.999s-76.833 47.834 -106.5 81.501s-52.667 72.167 -69 115.5s-24.5 88 -24.5 134c0 46.667 8.5 91.667 25.5 135s40.667 81.5 71 114.5s66.333 59.333 108 79s87.167 29.5 136.5 29.5c50.667 0 96.667 -10.333 138 -31
s76.833 -48 106.5 -82s52.5 -72.667 68.5 -116s24 -87.333 24 -132c0 -46.667 -8.5 -91.667 -25.5 -135s-40.5 -81.5 -70.5 -114.5s-65.833 -59.5 -107.5 -79.5s-87.167 -30 -136.5 -30zM195 353.999c0 -27.333 3.83203 -53.835 11.499 -79.502s18.667 -48.5 33 -68.5
s32.333 -36 54 -48s46.5 -18 74.5 -18c28.667 0 53.667 6.33301 75 19s39.166 29.167 53.499 49.5s25 43.333 32 69s10.5 51.834 10.5 78.501c0 27.333 -3.83301 53.833 -11.5 79.5s-18.834 48.334 -33.501 68.001s-32.667 35.334 -54 47.001s-45.666 17.5 -72.999 17.5
c-28.667 0 -53.667 -6.16699 -75 -18.5s-39.166 -28.5 -53.499 -48.5s-25.166 -42.833 -32.499 -68.5s-11 -51.834 -11 -78.501zM368.999 837.997c15.333 0 28.833 7.16699 40.5 21.5s18.5 32.833 20.5 55.5h83c0 -21.333 -3.5 -41 -10.5 -59s-16.833 -33.5 -29.5 -46.5
s-27.834 -23.167 -45.501 -30.5s-37.167 -11 -58.5 -11s-40.666 3.66699 -57.999 11s-32.5 17.5 -45.5 30.5s-23 28.5 -30 46.5s-10.5 37.667 -10.5 59h85c0 -21.333 5.83301 -39.5 17.5 -54.5s25.5 -22.5 41.5 -22.5z" />
    <glyph glyph-name="obreve" unicode="&#x14f;" horiz-adv-x="609" 
d="M305 -10c-44.667 0 -84.501 7.33301 -119.501 22s-64.5 34.5 -88.5 59.5s-42.167 54 -54.5 87s-18.5 67.5 -18.5 103.5s6.16699 70.5 18.5 103.5s30.5 62 54.5 87s53.5 45 88.5 60s74.833 22.5 119.5 22.5s84.334 -7.5 119.001 -22.5s64 -35 88 -60s42.333 -54 55 -87
s19 -67.5 19 -103.5s-6.16699 -70.5 -18.5 -103.5s-30.5 -62 -54.5 -87s-53.5 -44.833 -88.5 -59.5s-74.833 -22 -119.5 -22zM187.999 262c0 -41.333 10.999 -74.5 32.999 -99.5s50 -37.5 84 -37.5c16.667 0 32 3.33301 46 10s26.167 16 36.5 28s18.5 26.5 24.5 43.5
s9 35.5 9 55.5c0 41.333 -11 74.5 -33 99.5s-49.667 37.5 -83 37.5c-16.667 0 -32.167 -3.33301 -46.5 -10s-26.666 -16 -36.999 -28s-18.5 -26.5 -24.5 -43.5s-9 -35.5 -9 -55.5zM303.998 653c15.333 0 28.833 7.16699 40.5 21.5s18.5 32.833 20.5 55.5h83
c0 -21.333 -3.5 -41 -10.5 -59s-16.833 -33.5 -29.5 -46.5s-27.834 -23.167 -45.501 -30.5s-37.167 -11 -58.5 -11s-40.666 3.66699 -57.999 11s-32.5 17.5 -45.5 30.5s-23 28.5 -30 46.5s-10.5 37.667 -10.5 59h85c0 -21.333 5.83301 -39.5 17.5 -54.5
s25.5 -22.5 41.5 -22.5z" />
    <glyph glyph-name="Ohungarumlaut" unicode="&#x150;" horiz-adv-x="734" 
d="M306 758l-77 28l45 130h120zM481 758l-77 28l44 130h120zM366 -6c-50.667 0 -96.667 10.332 -138 30.999s-76.833 47.834 -106.5 81.501s-52.667 72.167 -69 115.5s-24.5 88 -24.5 134c0 46.667 8.5 91.667 25.5 135s40.667 81.5 71 114.5s66.333 59.333 108 79
s87.167 29.5 136.5 29.5c50.667 0 96.667 -10.333 138 -31s76.833 -48 106.5 -82s52.5 -72.667 68.5 -116s24 -87.333 24 -132c0 -46.667 -8.5 -91.667 -25.5 -135s-40.5 -81.5 -70.5 -114.5s-65.833 -59.5 -107.5 -79.5s-87.167 -30 -136.5 -30zM195 353.999
c0 -27.333 3.83203 -53.835 11.499 -79.502s18.667 -48.5 33 -68.5s32.333 -36 54 -48s46.5 -18 74.5 -18c28.667 0 53.667 6.33301 75 19s39.166 29.167 53.499 49.5s25 43.333 32 69s10.5 51.834 10.5 78.501c0 27.333 -3.83301 53.833 -11.5 79.5
s-18.834 48.334 -33.501 68.001s-32.667 35.334 -54 47.001s-45.666 17.5 -72.999 17.5c-28.667 0 -53.667 -6.16699 -75 -18.5s-39.166 -28.5 -53.499 -48.5s-25.166 -42.833 -32.499 -68.5s-11 -51.834 -11 -78.501z" />
    <glyph glyph-name="ohungarumlaut" unicode="&#x151;" horiz-adv-x="609" 
d="M241 573l-77 28l45 130h120zM416 573l-77 28l44 130h120zM305 -10c-44.667 0 -84.501 7.33301 -119.501 22s-64.5 34.5 -88.5 59.5s-42.167 54 -54.5 87s-18.5 67.5 -18.5 103.5s6.16699 70.5 18.5 103.5s30.5 62 54.5 87s53.5 45 88.5 60s74.833 22.5 119.5 22.5
s84.334 -7.5 119.001 -22.5s64 -35 88 -60s42.333 -54 55 -87s19 -67.5 19 -103.5s-6.16699 -70.5 -18.5 -103.5s-30.5 -62 -54.5 -87s-53.5 -44.833 -88.5 -59.5s-74.833 -22 -119.5 -22zM187.999 262c0 -41.333 10.999 -74.5 32.999 -99.5s50 -37.5 84 -37.5
c16.667 0 32 3.33301 46 10s26.167 16 36.5 28s18.5 26.5 24.5 43.5s9 35.5 9 55.5c0 41.333 -11 74.5 -33 99.5s-49.667 37.5 -83 37.5c-16.667 0 -32.167 -3.33301 -46.5 -10s-26.666 -16 -36.999 -28s-18.5 -26.5 -24.5 -43.5s-9 -35.5 -9 -55.5z" />
    <glyph glyph-name="OE" unicode="&#x152;" horiz-adv-x="1062" 
d="M1029 144l0.000976562 -143.999h-483v75c-22.667 -23.333 -49.334 -42.5 -80.001 -57.5s-64 -22.5 -100 -22.5c-50.667 0 -96.667 10.167 -138 30.5s-76.833 47.333 -106.5 81s-52.667 72.167 -69 115.5s-24.5 88 -24.5 134c0 46.667 8.5 91.667 25.5 135
s40.667 81.666 71 114.999s66.333 59.833 108 79.5s87.167 29.5 136.5 29.5c36 0 69 -7.33301 99 -22s56 -33.667 78 -57v74h474v-144h-309v-133h255v-143h-255v-146h318zM368.001 141.001c28.667 0 53.666 6.16699 74.999 18.5s39.166 28.666 53.499 48.999
s25 43.333 32 69s10.5 51.834 10.5 78.501c0 27.333 -3.83301 53.833 -11.5 79.5s-18.834 48.334 -33.501 68.001s-32.667 35.5 -54 47.5s-45.666 18 -72.999 18c-28.667 0 -53.667 -6.16699 -75 -18.5s-39.166 -28.666 -53.499 -48.999s-25.166 -43.333 -32.499 -69
s-11 -51.834 -11 -78.501c0 -27.333 3.83301 -53.833 11.5 -79.5s18.667 -48.334 33 -68.001s32.333 -35.5 54 -47.5s46.5 -18 74.5 -18z" />
    <glyph glyph-name="oe" unicode="&#x153;" horiz-adv-x="1003" 
d="M303 -10c-40.667 0 -78 6.83398 -112 20.501s-63.333 32.5 -88 56.5s-44 52.667 -58 86s-21 69.666 -21 108.999s7 75.666 21 108.999s33.333 62.166 58 86.499s54 43.333 88 57s71 20.5 111 20.5c42.667 0 80.5 -9 113.5 -27s62.167 -44.333 87.5 -79
c28 36 58.333 62.667 91 80s70 26 112 26c40 0 76.833 -6.66699 110.5 -20s62.834 -32.166 87.501 -56.499s44 -53.166 58 -86.499s21.333 -70 22 -110c0 -8 -0.333008 -16.5 -1 -25.5s-1.66699 -16.833 -3 -23.5h-388c1.33301 -16 5.33301 -30.667 12 -44
s15.334 -25 26.001 -35s23.167 -17.833 37.5 -23.5s29.5 -8.5 45.5 -8.5c25.333 0 48.666 6.16699 69.999 18.5s35.666 28.166 42.999 47.499l131 -38c-10.667 -21.333 -24.5 -40.666 -41.5 -57.999s-36.333 -32 -58 -44s-45.167 -21.333 -70.5 -28s-51.666 -10 -78.999 -10
c-39.333 0 -74.833 8.16699 -106.5 24.5s-64.5 41.5 -98.5 75.5c-33.333 -35.333 -65.333 -60.833 -96 -76.5s-65.334 -23.5 -104.001 -23.5zM305 125.001c34 0 61.834 12.833 83.501 38.5s32.5 58.5 32.5 98.5s-10.833 72.833 -32.5 98.5s-49.5 38.5 -83.5 38.5
c-17.333 0 -33 -3.33301 -47 -10s-26.333 -16.167 -37 -28.5s-18.834 -26.833 -24.501 -43.5s-8.5 -35 -8.5 -55c0 -40.667 11 -73.667 33 -99s50 -38 84 -38zM818.001 310.001c-3.33301 33.333 -15.834 60 -37.501 80s-48.167 30 -79.5 30
c-32 0 -58.167 -10.167 -78.5 -30.5s-32.166 -46.833 -35.499 -79.5h231z" />
    <glyph glyph-name="Racute" unicode="&#x154;" horiz-adv-x="680" 
d="M365 756l-102 28l52 130h145zM68 0v710.001h320c33.333 0 64.166 -7 92.499 -21s52.833 -32.333 73.5 -55s36.834 -48.334 48.501 -77.001s17.5 -57.667 17.5 -87c0 -22 -2.66699 -43.167 -8 -63.5s-13 -39.5 -23 -57.5s-22.167 -34.167 -36.5 -48.5
s-30.5 -26.5 -48.5 -36.5l163 -264h-185l-143 229h-107v-229h-164zM232 372.001l150 0.000976562c19.333 0 36 9.16699 50 27.5s21 41.833 21 70.5c0 29.333 -8 52.666 -24 69.999s-33.333 26 -52 26h-145v-194z" />
    <glyph glyph-name="racute" unicode="&#x155;" horiz-adv-x="401" 
d="M290 572l-102 28l52 130h145zM387 388c-38.667 -0.666992 -73.499 -7 -104.499 -19s-53.833 -30 -68.5 -54v-315h-160v525h147v-106c18.667 35.333 42.167 62.833 70.5 82.5s58.5 30.167 90.5 31.5c13.333 0 21.666 -0.333008 24.999 -1v-144z" />
    <glyph glyph-name="Rcommaaccent" unicode="&#x156;" horiz-adv-x="680" 
d="M243 -138c25.333 0 38 9.00098 38 27.001v64h130v-70c0 -19.333 -4.33301 -34.5 -13 -45.5s-20.5 -19.333 -35.5 -25s-32.667 -9.33398 -53 -11.001s-42.5 -2.5 -66.5 -2.5v63zM68 0.000976562v710.001h320c33.333 0 64.166 -7 92.499 -21s52.833 -32.333 73.5 -55
s36.834 -48.334 48.501 -77.001s17.5 -57.667 17.5 -87c0 -22 -2.66699 -43.167 -8 -63.5s-13 -39.5 -23 -57.5s-22.167 -34.167 -36.5 -48.5s-30.5 -26.5 -48.5 -36.5l163 -264h-185l-143 229h-107v-229h-164zM232 372.002l150 0.000976562c19.333 0 36 9.16699 50 27.5
s21 41.833 21 70.5c0 29.333 -8 52.666 -24 69.999s-33.333 26 -52 26h-145v-194z" />
    <glyph glyph-name="rcommaaccent" unicode="&#x157;" horiz-adv-x="401" 
d="M24 -138c25.333 0 38 9.00098 38 27.001v64h130v-70c0 -19.333 -4.33301 -34.5 -13 -45.5s-20.5 -19.333 -35.5 -25s-32.667 -9.33398 -53 -11.001s-42.5 -2.5 -66.5 -2.5v63zM387 388.001c-38.667 -0.666992 -73.499 -7 -104.499 -19s-53.833 -30 -68.5 -54v-315h-160
v525h147v-106c18.667 35.333 42.167 62.833 70.5 82.5s58.5 30.167 90.5 31.5c13.333 0 21.666 -0.333008 24.999 -1v-144z" />
    <glyph glyph-name="Rcaron" unicode="&#x158;" horiz-adv-x="680" 
d="M234 914l85 -63l85 63l82 -37l-109 -107h-115l-110 107zM68 0v710.001h320c33.333 0 64.166 -7 92.499 -21s52.833 -32.333 73.5 -55s36.834 -48.334 48.501 -77.001s17.5 -57.667 17.5 -87c0 -22 -2.66699 -43.167 -8 -63.5s-13 -39.5 -23 -57.5
s-22.167 -34.167 -36.5 -48.5s-30.5 -26.5 -48.5 -36.5l163 -264h-185l-143 229h-107v-229h-164zM232 372.001l150 0.000976562c19.333 0 36 9.16699 50 27.5s21 41.833 21 70.5c0 29.333 -8 52.666 -24 69.999s-33.333 26 -52 26h-145v-194z" />
    <glyph glyph-name="rcaron" unicode="&#x159;" horiz-adv-x="401" 
d="M159 730l85 -63l85 63l82 -37l-109 -107h-115l-110 107zM387 388c-38.667 -0.666992 -73.499 -7 -104.499 -19s-53.833 -30 -68.5 -54v-315h-160v525h147v-106c18.667 35.333 42.167 62.833 70.5 82.5s58.5 30.167 90.5 31.5c13.333 0 21.666 -0.333008 24.999 -1v-144z
" />
    <glyph glyph-name="Sacute" unicode="&#x15a;" horiz-adv-x="616" 
d="M370 761l-102 28l52 130h145zM495 502c-2.66699 2.66699 -9.99609 7.6582 -21.9961 14.9912s-27 15 -45 23s-37.667 15 -59 21s-42.666 9 -63.999 9c-28 0 -49.5 -5 -64.5 -15s-22.5 -24.667 -22.5 -44c0 -12 3.33301 -22 10 -30s16.167 -15.167 28.5 -21.5
s27.666 -12.166 45.999 -17.499l63.5 -18c34 -9.33301 64.667 -19.5 92 -30.5s50.666 -24.667 69.999 -41s34.166 -36.166 44.499 -59.499s15.5 -51.333 15.5 -84c0 -40 -7.5 -73.833 -22.5 -101.5s-34.833 -50 -59.5 -67s-53.167 -29.333 -85.5 -37
s-65.5 -11.5 -99.5 -11.5c-26 0 -52.5 2 -79.5 6s-53.5 9.83301 -79.5 17.5s-51.333 16.834 -76 27.501s-47.334 23 -68.001 37l72 143c3.33301 -3.33301 12.333 -9.66602 27 -18.999s32.667 -18.666 54 -27.999s45.333 -17.666 72 -24.999s53.667 -11 81 -11
c58 0 87 17.667 87 53c0 13.333 -4.33301 24.333 -13 33s-20.667 16.5 -36 23.5s-33.333 13.5 -54 19.5l-68 20c-32.667 10 -61 20.833 -85 32.5s-44 25.167 -60 40.5s-27.833 33 -35.5 53s-11.5 43.333 -11.5 70c0 37.333 7 70.333 21 99s33 52.834 57 72.501
s51.833 34.5 83.5 44.5s65.167 15 100.5 15c25.333 0 50 -2.33301 74 -7s46.833 -10.667 68.5 -18s42.167 -15.666 61.5 -24.999s36.666 -18.666 51.999 -27.999z" />
    <glyph glyph-name="sacute" unicode="&#x15b;" horiz-adv-x="517" 
d="M301 572l-102 28l52 130h145zM274 -10c-22 0 -44.8359 1.66699 -68.5029 5s-47.167 7.83301 -70.5 13.5s-45.666 12.667 -66.999 21s-40 17.5 -56 27.5l63 108c34.667 -20 68.334 -35.333 101.001 -46s64 -16 94 -16c23.333 0 41.166 3.66699 53.499 11s18.5 18 18.5 32
s-8.33301 24.833 -25 32.5s-45.334 16.834 -86.001 27.501c-35.333 9.33301 -65.333 18.666 -90 27.999s-44.5 19.833 -59.5 31.5s-25.833 24.834 -32.5 39.501s-10 32 -10 52c0 26.667 5.5 51 16.5 73s26.167 40.667 45.5 56s42.166 27.333 68.499 36s55.166 13 86.499 13
c36.667 0 74.167 -5.5 112.5 -16.5s75.833 -26.167 112.5 -45.5l-63 -101c-32.667 18 -61.834 31.167 -87.501 39.5s-50.5 12.5 -74.5 12.5c-20 0 -36.5 -3.5 -49.5 -10.5s-19.5 -18.167 -19.5 -33.5c0 -7.33301 1.66699 -13.5 5 -18.5s8.83301 -9.66699 16.5 -14
s17.834 -8.33301 30.501 -12s28.334 -7.83398 47.001 -12.501c38.667 -10 71.334 -20 98.001 -30s48.334 -21.167 65.001 -33.5s28.667 -26.5 36 -42.5s11 -35 11 -57c0 -26 -5.16699 -49.5 -15.5 -70.5s-25.166 -38.833 -44.499 -53.5s-42.666 -26 -69.999 -34
s-58 -12 -92 -12z" />
    <glyph glyph-name="Scircumflex" unicode="&#x15c;" horiz-adv-x="616" 
d="M157 811l110 108h115l109 -108l-82 -36l-85 63l-85 -63zM495 502c-2.66699 2.66699 -9.99609 7.6582 -21.9961 14.9912s-27 15 -45 23s-37.667 15 -59 21s-42.666 9 -63.999 9c-28 0 -49.5 -5 -64.5 -15s-22.5 -24.667 -22.5 -44c0 -12 3.33301 -22 10 -30
s16.167 -15.167 28.5 -21.5s27.666 -12.166 45.999 -17.499l63.5 -18c34 -9.33301 64.667 -19.5 92 -30.5s50.666 -24.667 69.999 -41s34.166 -36.166 44.499 -59.499s15.5 -51.333 15.5 -84c0 -40 -7.5 -73.833 -22.5 -101.5s-34.833 -50 -59.5 -67
s-53.167 -29.333 -85.5 -37s-65.5 -11.5 -99.5 -11.5c-26 0 -52.5 2 -79.5 6s-53.5 9.83301 -79.5 17.5s-51.333 16.834 -76 27.501s-47.334 23 -68.001 37l72 143c3.33301 -3.33301 12.333 -9.66602 27 -18.999s32.667 -18.666 54 -27.999s45.333 -17.666 72 -24.999
s53.667 -11 81 -11c58 0 87 17.667 87 53c0 13.333 -4.33301 24.333 -13 33s-20.667 16.5 -36 23.5s-33.333 13.5 -54 19.5l-68 20c-32.667 10 -61 20.833 -85 32.5s-44 25.167 -60 40.5s-27.833 33 -35.5 53s-11.5 43.333 -11.5 70c0 37.333 7 70.333 21 99
s33 52.834 57 72.501s51.833 34.5 83.5 44.5s65.167 15 100.5 15c25.333 0 50 -2.33301 74 -7s46.833 -10.667 68.5 -18s42.167 -15.666 61.5 -24.999s36.666 -18.666 51.999 -27.999z" />
    <glyph glyph-name="scircumflex" unicode="&#x15d;" horiz-adv-x="517" 
d="M89 622l110 108h115l109 -108l-82 -36l-85 63l-85 -63zM274 -10c-22 0 -44.8359 1.66699 -68.5029 5s-47.167 7.83301 -70.5 13.5s-45.666 12.667 -66.999 21s-40 17.5 -56 27.5l63 108c34.667 -20 68.334 -35.333 101.001 -46s64 -16 94 -16
c23.333 0 41.166 3.66699 53.499 11s18.5 18 18.5 32s-8.33301 24.833 -25 32.5s-45.334 16.834 -86.001 27.501c-35.333 9.33301 -65.333 18.666 -90 27.999s-44.5 19.833 -59.5 31.5s-25.833 24.834 -32.5 39.501s-10 32 -10 52c0 26.667 5.5 51 16.5 73
s26.167 40.667 45.5 56s42.166 27.333 68.499 36s55.166 13 86.499 13c36.667 0 74.167 -5.5 112.5 -16.5s75.833 -26.167 112.5 -45.5l-63 -101c-32.667 18 -61.834 31.167 -87.501 39.5s-50.5 12.5 -74.5 12.5c-20 0 -36.5 -3.5 -49.5 -10.5s-19.5 -18.167 -19.5 -33.5
c0 -7.33301 1.66699 -13.5 5 -18.5s8.83301 -9.66699 16.5 -14s17.834 -8.33301 30.501 -12s28.334 -7.83398 47.001 -12.501c38.667 -10 71.334 -20 98.001 -30s48.334 -21.167 65.001 -33.5s28.667 -26.5 36 -42.5s11 -35 11 -57c0 -26 -5.16699 -49.5 -15.5 -70.5
s-25.166 -38.833 -44.499 -53.5s-42.666 -26 -69.999 -34s-58 -12 -92 -12z" />
    <glyph glyph-name="uni015E" unicode="&#x15e;" horiz-adv-x="616" 
d="M236 -127c7.33301 -4.66699 19.6699 -9.1748 37.0029 -13.5078s35 -6.5 53 -6.5c16 0 29.333 2.33301 40 7s16 13 16 25c0 11.333 -5 19.5 -15 24.5s-23 7.5 -39 7.5c-14 0 -28.833 -1.33301 -44.5 -4s-27.167 -5 -34.5 -7l42 87c-48 3.33301 -96 12.333 -144 27
s-91 34.667 -129 60l72 143c3.33301 -3.33301 12.333 -9.66602 27 -18.999s32.667 -18.666 54 -27.999s45.333 -17.666 72 -24.999s53.667 -11 81 -11c58 0 87 17.667 87 53c0 13.333 -4.33301 24.333 -13 33s-20.667 16.5 -36 23.5s-33.333 13.5 -54 19.5l-68 20
c-32.667 10 -61 20.833 -85 32.5s-44 25.167 -60 40.5s-27.833 33 -35.5 53s-11.5 43.333 -11.5 70c0 37.333 7 70.333 21 99s33 52.834 57 72.501s51.833 34.5 83.5 44.5s65.167 15 100.5 15c25.333 0 50 -2.33301 74 -7s46.833 -10.667 68.5 -18
s42.167 -15.666 61.5 -24.999s36.666 -18.666 51.999 -27.999l-71 -136c-2.66699 2.66699 -10 7.66699 -22 15s-27 15 -45 23s-37.667 15 -59 21s-42.666 9 -63.999 9c-28 0 -49.5 -5 -64.5 -15s-22.5 -24.667 -22.5 -44c0 -12 3.33301 -22 10 -30
s16.167 -15.167 28.5 -21.5s27.666 -12.166 45.999 -17.499l63.5 -18c34 -9.33301 64.667 -19.5 92 -30.5s50.666 -24.667 69.999 -41s34.166 -36.166 44.499 -59.499s15.5 -51.333 15.5 -84c0 -36.667 -6.33301 -68.167 -19 -94.5s-29.667 -48.166 -51 -65.499
s-46 -30.5 -74 -39.5s-57.333 -14.5 -88 -16.5l-21 -31c8.66699 2 18.667 3 30 3c24 0 45 -5.83301 63 -17.5s27 -30.5 27 -56.5c0 -26.667 -11.333 -49.167 -34 -67.5s-58 -27.5 -106 -27.5c-23.333 0 -44 2.16699 -62 6.5s-33.667 9.16602 -47 14.499z" />
    <glyph glyph-name="uni015F" unicode="&#x15f;" horiz-adv-x="518" 
d="M193 -127c7.33301 -4.66699 19.667 -9.16602 37 -13.499s35 -6.5 53 -6.5c16 0 29.333 2.33301 40 7s16 13 16 25c0 11.333 -5 19.5 -15 24.5s-23 7.5 -39 7.5c-14 0 -28.833 -1.33301 -44.5 -4s-27.167 -5 -34.5 -7l41 85c-41.333 2 -83.5 9 -126.5 21
s-79.167 27 -108.5 45l63 108c34.667 -20 68.334 -35.333 101.001 -46s64 -16 94 -16c23.333 0 41.166 3.66699 53.499 11s18.5 18 18.5 32s-8.33301 24.833 -25 32.5s-45.334 16.834 -86.001 27.501c-35.333 9.33301 -65.333 18.666 -90 27.999s-44.5 19.833 -59.5 31.5
s-25.833 24.834 -32.5 39.501s-10 32 -10 52c0 26.667 5.5 51 16.5 73s26.167 40.667 45.5 56s42.166 27.333 68.499 36s55.166 13 86.499 13c36.667 0 74.167 -5.5 112.5 -16.5s75.833 -26.167 112.5 -45.5l-63 -101c-32.667 18 -61.834 31.167 -87.501 39.5
s-50.5 12.5 -74.5 12.5c-20 0 -36.5 -3.5 -49.5 -10.5s-19.5 -18.167 -19.5 -33.5c0 -7.33301 1.66699 -13.5 5 -18.5s8.83301 -9.66699 16.5 -14s17.834 -8.33301 30.501 -12s28.334 -7.83398 47.001 -12.501c38.667 -10 71.334 -20 98.001 -30
s48.334 -21.167 65.001 -33.5s28.667 -26.5 36 -42.5s11 -35 11 -57c0 -47.333 -16.333 -85.833 -49 -115.5s-77.667 -47.167 -135 -52.5l-20 -30c8.66699 2 18.667 3 30 3c24 0 45 -5.83301 63 -17.5s27 -30.5 27 -56.5c0 -26.667 -11.333 -49.167 -34 -67.5
s-58 -27.5 -106 -27.5c-23.333 0 -44 2.16699 -62 6.5s-33.667 9.16602 -47 14.499z" />
    <glyph glyph-name="Scaron" unicode="&#x160;" horiz-adv-x="616" 
d="M239 919l85 -63l85 63l82 -37l-109 -107h-115l-110 107zM495 502c-2.66699 2.66699 -9.99609 7.6582 -21.9961 14.9912s-27 15 -45 23s-37.667 15 -59 21s-42.666 9 -63.999 9c-28 0 -49.5 -5 -64.5 -15s-22.5 -24.667 -22.5 -44c0 -12 3.33301 -22 10 -30
s16.167 -15.167 28.5 -21.5s27.666 -12.166 45.999 -17.499l63.5 -18c34 -9.33301 64.667 -19.5 92 -30.5s50.666 -24.667 69.999 -41s34.166 -36.166 44.499 -59.499s15.5 -51.333 15.5 -84c0 -40 -7.5 -73.833 -22.5 -101.5s-34.833 -50 -59.5 -67
s-53.167 -29.333 -85.5 -37s-65.5 -11.5 -99.5 -11.5c-26 0 -52.5 2 -79.5 6s-53.5 9.83301 -79.5 17.5s-51.333 16.834 -76 27.501s-47.334 23 -68.001 37l72 143c3.33301 -3.33301 12.333 -9.66602 27 -18.999s32.667 -18.666 54 -27.999s45.333 -17.666 72 -24.999
s53.667 -11 81 -11c58 0 87 17.667 87 53c0 13.333 -4.33301 24.333 -13 33s-20.667 16.5 -36 23.5s-33.333 13.5 -54 19.5l-68 20c-32.667 10 -61 20.833 -85 32.5s-44 25.167 -60 40.5s-27.833 33 -35.5 53s-11.5 43.333 -11.5 70c0 37.333 7 70.333 21 99
s33 52.834 57 72.501s51.833 34.5 83.5 44.5s65.167 15 100.5 15c25.333 0 50 -2.33301 74 -7s46.833 -10.667 68.5 -18s42.167 -15.666 61.5 -24.999s36.666 -18.666 51.999 -27.999z" />
    <glyph glyph-name="scaron" unicode="&#x161;" horiz-adv-x="517" 
d="M171 730l85 -63l85 63l82 -37l-109 -107h-115l-110 107zM274 -10c-22 0 -44.8359 1.66699 -68.5029 5s-47.167 7.83301 -70.5 13.5s-45.666 12.667 -66.999 21s-40 17.5 -56 27.5l63 108c34.667 -20 68.334 -35.333 101.001 -46s64 -16 94 -16
c23.333 0 41.166 3.66699 53.499 11s18.5 18 18.5 32s-8.33301 24.833 -25 32.5s-45.334 16.834 -86.001 27.501c-35.333 9.33301 -65.333 18.666 -90 27.999s-44.5 19.833 -59.5 31.5s-25.833 24.834 -32.5 39.501s-10 32 -10 52c0 26.667 5.5 51 16.5 73
s26.167 40.667 45.5 56s42.166 27.333 68.499 36s55.166 13 86.499 13c36.667 0 74.167 -5.5 112.5 -16.5s75.833 -26.167 112.5 -45.5l-63 -101c-32.667 18 -61.834 31.167 -87.501 39.5s-50.5 12.5 -74.5 12.5c-20 0 -36.5 -3.5 -49.5 -10.5s-19.5 -18.167 -19.5 -33.5
c0 -7.33301 1.66699 -13.5 5 -18.5s8.83301 -9.66699 16.5 -14s17.834 -8.33301 30.501 -12s28.334 -7.83398 47.001 -12.501c38.667 -10 71.334 -20 98.001 -30s48.334 -21.167 65.001 -33.5s28.667 -26.5 36 -42.5s11 -35 11 -57c0 -26 -5.16699 -49.5 -15.5 -70.5
s-25.166 -38.833 -44.499 -53.5s-42.666 -26 -69.999 -34s-58 -12 -92 -12z" />
    <glyph glyph-name="uni0162" unicode="&#x162;" horiz-adv-x="622" 
d="M236 -127c7.33301 -4.66699 19.667 -9.16602 37 -13.499s35 -6.5 53 -6.5c16 0 29.333 2.33301 40 7s16 13 16 25c0 11.333 -5 19.5 -15 24.5s-23 7.5 -39 7.5c-14 0 -28.833 -1.33301 -44.5 -4s-27.167 -5 -34.5 -7l46 94h-66v566h-217v144h597v-144h-216v-566h-32
l-26 -38c8.66699 2 18.667 3 30 3c24 0 45 -5.83301 63 -17.5s27 -30.5 27 -56.5c0 -26.667 -11.333 -49.167 -34 -67.5s-58 -27.5 -106 -27.5c-23.333 0 -44 2.16699 -62 6.5s-33.667 9.16602 -47 14.499z" />
    <glyph glyph-name="uni0163" unicode="&#x163;" horiz-adv-x="402" 
d="M153 -127c7.33301 -4.66699 19.6689 -9.16895 37.002 -13.502s35 -6.5 53 -6.5c16 0 29.333 2.33301 40 7s16 13 16 25c0 11.333 -5 19.5 -15 24.5s-23 7.5 -39 7.5c-14 0 -28.833 -1.33301 -44.5 -4s-27.167 -5 -34.5 -7l42 86c-16.667 2 -32.334 6 -47.001 12
s-27.334 14.5 -38.001 25.5s-19.167 24.833 -25.5 41.5s-9.5 36.334 -9.5 59.001v274h-67v121h67v167h160v-167h107v-121h-107v-219c0 -17.333 4.5 -29.833 13.5 -37.5s20.167 -11.5 33.5 -11.5c11.333 0 23.333 2 36 6s24 8.33301 34 13l30 -127
c-17.333 -7.33301 -36.5 -14.166 -57.5 -20.499s-42.5 -11.166 -64.5 -14.499l-21 -31c8.66699 2 18.667 3 30 3c24 0 45 -5.83301 63 -17.5s27 -30.5 27 -56.5c0 -26.667 -11.333 -49.167 -34 -67.5s-58 -27.5 -106 -27.5c-23.333 0 -44 2.16699 -62 6.5
s-33.667 9.16602 -47 14.499z" />
    <glyph glyph-name="Tcaron" unicode="&#x164;" horiz-adv-x="622" 
d="M232 915l85 -63l85 63l82 -37l-109 -107h-115l-110 107zM609 566h-216v-566h-164v566h-217v144h597v-144z" />
    <glyph glyph-name="tcaron" unicode="&#x165;" horiz-adv-x="401" 
d="M388 572l-102 28l52 130h145zM394 28c-22 -9.33301 -47 -18 -75 -26s-56.667 -12 -86 -12c-20 0 -38.833 2.5 -56.5 7.5s-33.167 13 -46.5 24s-23.833 25.5 -31.5 43.5s-11.5 39.667 -11.5 65v274h-67v121h67v167h160v-167h107v-121h-107v-219
c0 -17.333 4.5 -29.833 13.5 -37.5s20.167 -11.5 33.5 -11.5c11.333 0 23.333 2 36 6s24 8.33301 34 13z" />
    <glyph glyph-name="Tbar" unicode="&#x166;" horiz-adv-x="649" 
d="M622 566h-216v-198h179v-76h-179v-292h-164v292h-178v76h178v198h-217v144h597v-144z" />
    <glyph glyph-name="tbar" unicode="&#x167;" horiz-adv-x="402" 
d="M395 28c-22 -9.33301 -47 -18 -75 -26s-56.667 -12 -86 -12c-20 0 -38.833 2.5 -56.5 7.5s-33.167 13 -46.5 24s-23.833 25.5 -31.5 43.5s-11.5 39.667 -11.5 65v117h-67v93h67v64h-67v121h67v167h160v-167h107v-121h-107v-64h107v-93h-107v-62
c0 -17.333 4.5 -29.833 13.5 -37.5s20.167 -11.5 33.5 -11.5c11.333 0 23.333 2 36 6s24 8.33301 34 13z" />
    <glyph glyph-name="Utilde" unicode="&#x168;" horiz-adv-x="745" 
d="M372 140c28 0 51.6689 5.83203 71.002 17.499s35 27.167 47 46.5s20.5 41.5 25.5 66.5s7.5 50.5 7.5 76.5v363h164v-363c0 -49.333 -6.16699 -95.333 -18.5 -138s-31.333 -80 -57 -112s-58.334 -57.167 -98.001 -75.5s-86.834 -27.5 -141.501 -27.5
c-56.667 0 -105 9.66699 -145 29s-72.5 45.166 -97.5 77.499s-43.333 69.833 -55 112.5s-17.5 87.334 -17.5 134.001v363h164v-363c0 -27.333 2.66699 -53.333 8 -78s14 -46.667 26 -66s27.5 -34.666 46.5 -45.999s42.5 -17 70.5 -17zM436.002 772.999
c-15.333 0 -28.832 2.33301 -40.499 7s-22.5 10 -32.5 16s-19.667 11.333 -29 16s-19.666 7 -30.999 7s-20 -2.33301 -26 -7s-10.667 -10 -14 -16s-5.33301 -11.5 -6 -16.5s-1 -7.83301 -1 -8.5h-86c0 7.33301 2.16699 18.833 6.5 34.5s11.5 31.5 21.5 47.5
s23.167 30 39.5 42s36.166 18 59.499 18c16 0 29.667 -2.5 41 -7.5s21.833 -10.5 31.5 -16.5s19.167 -11.5 28.5 -16.5s20 -7.5 32 -7.5c11.333 0 20.5 2.5 27.5 7.5s12.333 10.5 16 16.5s6 11.667 7 17s1.5 8.33301 1.5 9h86c0 -5.33301 -2.33301 -15.666 -7 -30.999
s-12.167 -31.333 -22.5 -48s-23.833 -31.334 -40.5 -44.001s-37.334 -19 -62.001 -19z" />
    <glyph glyph-name="utilde" unicode="&#x169;" horiz-adv-x="633" 
d="M214 -10c-53.333 0 -94.001 16.832 -122.001 50.499s-42 83.167 -42 148.5v336h160v-301c0 -32 6.33301 -56.5 19 -73.5s30.667 -25.5 54 -25.5c21.333 0 42 5.66699 62 17s37.667 31 53 59v324h160v-345c0 -16 3 -27.167 9 -33.5s16.667 -10.166 32 -11.499v-135
c-16.667 -3.33301 -31.167 -5.5 -43.5 -6.5s-23.166 -1.5 -32.499 -1.5c-56 0.666992 -88.333 23 -97 67l-3 32c-24 -34.667 -53.833 -60.167 -89.5 -76.5s-75.5 -24.5 -119.5 -24.5zM367.999 587.999c-15.333 0 -28.832 2.33301 -40.499 7s-22.5 10 -32.5 16
s-19.667 11.333 -29 16s-19.666 7 -30.999 7s-20 -2.33301 -26 -7s-10.667 -10 -14 -16s-5.33301 -11.5 -6 -16.5s-1 -7.83301 -1 -8.5h-86c0 7.33301 2.16699 18.833 6.5 34.5s11.5 31.5 21.5 47.5s23.167 30 39.5 42s36.166 18 59.499 18c16 0 29.667 -2.5 41 -7.5
s21.833 -10.5 31.5 -16.5s19.167 -11.5 28.5 -16.5s20 -7.5 32 -7.5c11.333 0 20.5 2.5 27.5 7.5s12.333 10.5 16 16.5s6 11.667 7 17s1.5 8.33301 1.5 9h86c0 -5.33301 -2.33301 -15.666 -7 -30.999s-12.167 -31.333 -22.5 -48s-23.833 -31.334 -40.5 -44.001
s-37.334 -19 -62.001 -19z" />
    <glyph glyph-name="Umacron" unicode="&#x16a;" horiz-adv-x="745" 
d="M372 140c28 0 51.6689 5.83203 71.002 17.499s35 27.167 47 46.5s20.5 41.5 25.5 66.5s7.5 50.5 7.5 76.5v363h164v-363c0 -49.333 -6.16699 -95.333 -18.5 -138s-31.333 -80 -57 -112s-58.334 -57.167 -98.001 -75.5s-86.834 -27.5 -141.501 -27.5
c-56.667 0 -105 9.66699 -145 29s-72.5 45.166 -97.5 77.499s-43.333 69.833 -55 112.5s-17.5 87.334 -17.5 134.001v363h164v-363c0 -27.333 2.66699 -53.333 8 -78s14 -46.667 26 -66s27.5 -34.666 46.5 -45.999s42.5 -17 70.5 -17zM221.002 805.999v97h304v-97h-304z" />
    <glyph glyph-name="umacron" unicode="&#x16b;" horiz-adv-x="633" 
d="M214 -10c-53.333 0 -94.001 16.832 -122.001 50.499s-42 83.167 -42 148.5v336h160v-301c0 -32 6.33301 -56.5 19 -73.5s30.667 -25.5 54 -25.5c21.333 0 42 5.66699 62 17s37.667 31 53 59v324h160v-345c0 -16 3 -27.167 9 -33.5s16.667 -10.166 32 -11.499v-135
c-16.667 -3.33301 -31.167 -5.5 -43.5 -6.5s-23.166 -1.5 -32.499 -1.5c-56 0.666992 -88.333 23 -97 67l-3 32c-24 -34.667 -53.833 -60.167 -89.5 -76.5s-75.5 -24.5 -119.5 -24.5zM152.999 620.999v97h304v-97h-304z" />
    <glyph glyph-name="Ubreve" unicode="&#x16c;" horiz-adv-x="745" 
d="M372 140c28 0 51.6689 5.83203 71.002 17.499s35 27.167 47 46.5s20.5 41.5 25.5 66.5s7.5 50.5 7.5 76.5v363h164v-363c0 -49.333 -6.16699 -95.333 -18.5 -138s-31.333 -80 -57 -112s-58.334 -57.167 -98.001 -75.5s-86.834 -27.5 -141.501 -27.5
c-56.667 0 -105 9.66699 -145 29s-72.5 45.166 -97.5 77.499s-43.333 69.833 -55 112.5s-17.5 87.334 -17.5 134.001v363h164v-363c0 -27.333 2.66699 -53.333 8 -78s14 -46.667 26 -66s27.5 -34.666 46.5 -45.999s42.5 -17 70.5 -17zM372.002 837.999
c15.333 0 28.833 7.16699 40.5 21.5s18.5 32.833 20.5 55.5h83c0 -21.333 -3.5 -41 -10.5 -59s-16.833 -33.5 -29.5 -46.5s-27.834 -23.167 -45.501 -30.5s-37.167 -11 -58.5 -11s-40.666 3.66699 -57.999 11s-32.5 17.5 -45.5 30.5s-23 28.5 -30 46.5
s-10.5 37.667 -10.5 59h85c0 -21.333 5.83301 -39.5 17.5 -54.5s25.5 -22.5 41.5 -22.5z" />
    <glyph glyph-name="ubreve" unicode="&#x16d;" horiz-adv-x="633" 
d="M214 -10c-53.333 0 -94.001 16.832 -122.001 50.499s-42 83.167 -42 148.5v336h160v-301c0 -32 6.33301 -56.5 19 -73.5s30.667 -25.5 54 -25.5c21.333 0 42 5.66699 62 17s37.667 31 53 59v324h160v-345c0 -16 3 -27.167 9 -33.5s16.667 -10.166 32 -11.499v-135
c-16.667 -3.33301 -31.167 -5.5 -43.5 -6.5s-23.166 -1.5 -32.499 -1.5c-56 0.666992 -88.333 23 -97 67l-3 32c-24 -34.667 -53.833 -60.167 -89.5 -76.5s-75.5 -24.5 -119.5 -24.5zM303.999 652.999c15.333 0 28.833 7.16699 40.5 21.5s18.5 32.833 20.5 55.5h83
c0 -21.333 -3.5 -41 -10.5 -59s-16.833 -33.5 -29.5 -46.5s-27.834 -23.167 -45.501 -30.5s-37.167 -11 -58.5 -11s-40.666 3.66699 -57.999 11s-32.5 17.5 -45.5 30.5s-23 28.5 -30 46.5s-10.5 37.667 -10.5 59h85c0 -21.333 5.83301 -39.5 17.5 -54.5
s25.5 -22.5 41.5 -22.5z" />
    <glyph glyph-name="Uring" unicode="&#x16e;" horiz-adv-x="745" 
d="M265 833c0 27.333 9.83301 47.833 29.5 61.5s45.5 20.5 77.5 20.5s57.667 -6.83301 77 -20.5s29 -34.167 29 -61.5c0 -26.667 -9.66699 -46.834 -29 -60.501s-45 -20.5 -77 -20.5s-57.833 6.83301 -77.5 20.5s-29.5 33.834 -29.5 60.501zM372 868
c-11.333 0 -20.833 -3.16699 -28.5 -9.5s-11.5 -14.5 -11.5 -24.5s3.83301 -18.333 11.5 -25s17.167 -10 28.5 -10c10.667 0 20 3.16699 28 9.5s12 14.833 12 25.5c0 10 -3.83301 18.167 -11.5 24.5s-17.167 9.5 -28.5 9.5zM372 140c28 0 51.6689 5.83203 71.002 17.499
s35 27.167 47 46.5s20.5 41.5 25.5 66.5s7.5 50.5 7.5 76.5v363h164v-363c0 -49.333 -6.16699 -95.333 -18.5 -138s-31.333 -80 -57 -112s-58.334 -57.167 -98.001 -75.5s-86.834 -27.5 -141.501 -27.5c-56.667 0 -105 9.66699 -145 29s-72.5 45.166 -97.5 77.499
s-43.333 69.833 -55 112.5s-17.5 87.334 -17.5 134.001v363h164v-363c0 -27.333 2.66699 -53.333 8 -78s14 -46.667 26 -66s27.5 -34.666 46.5 -45.999s42.5 -17 70.5 -17z" />
    <glyph glyph-name="uring" unicode="&#x16f;" horiz-adv-x="633" 
d="M197 648c0 27.333 9.83301 47.833 29.5 61.5s45.5 20.5 77.5 20.5s57.667 -6.83301 77 -20.5s29 -34.167 29 -61.5c0 -26.667 -9.66699 -46.834 -29 -60.501s-45 -20.5 -77 -20.5s-57.833 6.83301 -77.5 20.5s-29.5 33.834 -29.5 60.501zM304 683
c-11.333 0 -20.833 -3.16699 -28.5 -9.5s-11.5 -14.5 -11.5 -24.5s3.83301 -18.333 11.5 -25s17.167 -10 28.5 -10c10.667 0 20 3.16699 28 9.5s12 14.833 12 25.5c0 10 -3.83301 18.167 -11.5 24.5s-17.167 9.5 -28.5 9.5zM214 -10
c-53.333 0 -94.001 16.832 -122.001 50.499s-42 83.167 -42 148.5v336h160v-301c0 -32 6.33301 -56.5 19 -73.5s30.667 -25.5 54 -25.5c21.333 0 42 5.66699 62 17s37.667 31 53 59v324h160v-345c0 -16 3 -27.167 9 -33.5s16.667 -10.166 32 -11.499v-135
c-16.667 -3.33301 -31.167 -5.5 -43.5 -6.5s-23.166 -1.5 -32.499 -1.5c-56 0.666992 -88.333 23 -97 67l-3 32c-24 -34.667 -53.833 -60.167 -89.5 -76.5s-75.5 -24.5 -119.5 -24.5z" />
    <glyph glyph-name="Uhungarumlaut" unicode="&#x170;" horiz-adv-x="745" 
d="M372 140c28 0 51.6689 5.83203 71.002 17.499s35 27.167 47 46.5s20.5 41.5 25.5 66.5s7.5 50.5 7.5 76.5v363h164v-363c0 -49.333 -6.16699 -95.333 -18.5 -138s-31.333 -80 -57 -112s-58.334 -57.167 -98.001 -75.5s-86.834 -27.5 -141.501 -27.5
c-56.667 0 -105 9.66699 -145 29s-72.5 45.166 -97.5 77.499s-43.333 69.833 -55 112.5s-17.5 87.334 -17.5 134.001v363h164v-363c0 -27.333 2.66699 -53.333 8 -78s14 -46.667 26 -66s27.5 -34.666 46.5 -45.999s42.5 -17 70.5 -17zM308.002 757.999l-77 28l45 130h120z
M483.002 757.999l-77 28l44 130h120z" />
    <glyph glyph-name="uhungarumlaut" unicode="&#x171;" horiz-adv-x="633" 
d="M214 -10c-53.333 0 -94.001 16.832 -122.001 50.499s-42 83.167 -42 148.5v336h160v-301c0 -32 6.33301 -56.5 19 -73.5s30.667 -25.5 54 -25.5c21.333 0 42 5.66699 62 17s37.667 31 53 59v324h160v-345c0 -16 3 -27.167 9 -33.5s16.667 -10.166 32 -11.499v-135
c-16.667 -3.33301 -31.167 -5.5 -43.5 -6.5s-23.166 -1.5 -32.499 -1.5c-56 0.666992 -88.333 23 -97 67l-3 32c-24 -34.667 -53.833 -60.167 -89.5 -76.5s-75.5 -24.5 -119.5 -24.5zM240.999 572.999l-77 28l45 130h120zM415.999 572.999l-77 28l44 130h120z" />
    <glyph glyph-name="Uogonek" unicode="&#x172;" horiz-adv-x="745" 
d="M372 140c28 0 51.665 5.83301 70.998 17.5s35 27.167 47 46.5s20.5 41.5 25.5 66.5s7.5 50.5 7.5 76.5v363h164v-363c0 -47.333 -5.66699 -91.666 -17 -132.999s-28.666 -77.666 -51.999 -108.999s-53.166 -56.833 -89.499 -76.5s-79.5 -30.834 -129.5 -33.501
c-48.667 -30 -73 -58 -73 -84c0 -11.333 5.33301 -20.5 16 -27.5s27 -10.833 49 -11.5l-31 -77c-40 5.33301 -69.667 16.666 -89 33.999s-29 37 -29 59c0 18.667 6.5 37.167 19.5 55.5s33.167 36.166 60.5 53.499c-47.333 6 -87.833 19.5 -121.5 40.5
s-61.167 47.167 -82.5 78.5s-36.833 66.833 -46.5 106.5s-14.5 81.167 -14.5 124.5v363h164v-363c0 -27.333 2.66699 -53.333 8 -78s14 -46.667 26 -66s27.5 -34.666 46.5 -45.999s42.5 -17 70.5 -17z" />
    <glyph glyph-name="uogonek" unicode="&#x173;" horiz-adv-x="633" 
d="M214 -10c-53.333 0 -94 16.833 -122 50.5s-42 83.167 -42 148.5v336h160v-301c0 -32 6.33301 -56.5 19 -73.5s30.667 -25.5 54 -25.5c21.333 0 42 5.66699 62 17s37.667 31 53 59v324h160v-345c0 -16 3 -27.167 9 -33.5s16.667 -10.166 32 -11.499v-135
c-54.667 -32 -82 -61.667 -82 -89c0 -11.333 5.33301 -20.5 16 -27.5s27 -10.833 49 -11.5l-31 -77c-40 5.33301 -69.667 16.666 -89 33.999s-29 37 -29 59c0 17.333 6 35 18 53s30.333 35.333 55 52c-45.333 4.66699 -72 26.667 -80 66l-3 32
c-24 -34.667 -53.833 -60.167 -89.5 -76.5s-75.5 -24.5 -119.5 -24.5z" />
    <glyph glyph-name="Wcircumflex" unicode="&#x174;" horiz-adv-x="1056" 
d="M360 807l110 108h115l109 -108l-82 -36l-85 63l-85 -63zM304 709h152l71 -227l73 227h151l-119 -330l72 -191l179 522h178l-283 -710h-138l-112 278l-113 -278h-137l-283 710h177l180 -522l70 191z" />
    <glyph glyph-name="wcircumflex" unicode="&#x175;" horiz-adv-x="856" 
d="M261 622l110 108h115l109 -108l-82 -36l-85 63l-85 -63zM706 525h151l-217 -525h-131l-81 216l-80 -216h-131l-217 525h151l142 -377l49 143l-92 234h128l50 -158l51 158h128l-93 -234l50 -143z" />
    <glyph glyph-name="Ycircumflex" unicode="&#x176;" horiz-adv-x="648" 
d="M170 710l153 -326l156 326h178l-252 -468v-242h-164v244l-249 466h178zM156 807l110 108h115l109 -108l-82 -36l-85 63l-85 -63z" />
    <glyph glyph-name="ycircumflex" unicode="&#x177;" horiz-adv-x="545" 
d="M52 -79c14.667 -4.66699 28.1699 -7.99902 40.5029 -9.99902s23.166 -3 32.499 -3c17.333 0 31.5 6.83301 42.5 20.5s20.167 37.5 27.5 71.5l-199 525h164l123 -388l105 388h149l-201 -610c-14.667 -44 -39.5 -79.167 -74.5 -105.5s-75.5 -39.833 -121.5 -40.5
c-14.667 0 -29.334 1.16699 -44.001 3.5s-29.334 6.16602 -44.001 11.499v137zM116.003 622.001l110 108h115l109 -108l-82 -36l-85 63l-85 -63z" />
    <glyph glyph-name="Ydieresis" unicode="&#x178;" horiz-adv-x="648" 
d="M170 710l153 -326l156 326h178l-252 -468v-242h-164v244l-249 466h178zM152 779v129h132v-129h-132zM362 779v129h132v-129h-132z" />
    <glyph glyph-name="Zacute" unicode="&#x179;" horiz-adv-x="623" 
d="M368 757l-102 28l52 130h145zM27 123l369 443h-355v144h545v-123l-353 -443h357v-144h-563v123z" />
    <glyph glyph-name="zacute" unicode="&#x17a;" horiz-adv-x="492" 
d="M291 572l-102 28l52 130h145zM23 96l268 318h-254v111h422v-96l-267 -318h273v-111h-442v96z" />
    <glyph glyph-name="Zdotaccent" unicode="&#x17b;" horiz-adv-x="623" 
d="M27 123l369 443h-355v144h545v-123l-353 -443h357v-144h-563v123zM250 778v137h144v-137h-144z" />
    <glyph glyph-name="zdotaccent" unicode="&#x17c;" horiz-adv-x="492" 
d="M23 96l268 318h-254v111h422v-96l-267 -318h273v-111h-442v96zM174 593v137h144v-137h-144z" />
    <glyph glyph-name="Zcaron" unicode="&#x17d;" horiz-adv-x="623" 
d="M237 915l85 -63l85 63l82 -37l-109 -107h-115l-110 107zM27 123l369 443h-355v144h545v-123l-353 -443h357v-144h-563v123z" />
    <glyph glyph-name="zcaron" unicode="&#x17e;" horiz-adv-x="492" 
d="M160 730l85 -63l85 63l82 -37l-109 -107h-115l-110 107zM23 96l268 318h-254v111h422v-96l-267 -318h273v-111h-442v96z" />
    <glyph glyph-name="florin" unicode="&#x192;" horiz-adv-x="557" 
d="M169 -202c-26 0 -51 4.16406 -75 12.4971s-45.667 20.833 -65 37.5l67 109c6.66699 -7.33301 14.667 -12.666 24 -15.999s19 -5 29 -5c15.333 0 28 5 38 15s15 23.333 15 40v352h-67v121h67v61c0 32.667 4.33301 62.334 13 89.001s21 49.334 37 68.001s35.333 33 58 43
s47.667 15 75 15c42.667 0 88.334 -10.333 137.001 -31l-29 -120c-10.667 4.66699 -22.5 8.5 -35.5 11.5s-25.167 4.5 -36.5 4.5c-39.333 0 -59 -24.667 -59 -74v-67h122v-121h-122v-348c0 -29.333 -5 -56 -15 -80s-23.667 -44.667 -41 -62s-37.833 -30.833 -61.5 -40.5
s-48.834 -14.5 -75.501 -14.5z" />
    <glyph glyph-name="Oogonek" unicode="&#x1ea;" horiz-adv-x="734" 
d="M354 -205c-40 5.33301 -69.668 16.665 -89.001 33.998s-29 37 -29 59c0 18.667 6.66699 37.334 20 56.001s33.333 36.667 60 54c-43.333 6.66699 -82.833 21.167 -118.5 43.5s-66 49.833 -91 82.5s-44.333 69 -58 109s-20.5 81 -20.5 123c0 46.667 8.5 91.667 25.5 135
s40.667 81.5 71 114.5s66.333 59.333 108 79s87.167 29.5 136.5 29.5c50.667 0 96.667 -10.333 138 -31s76.833 -48 106.5 -82s52.5 -72.667 68.5 -116s24 -87.333 24 -132s-7.66699 -87.667 -23 -129s-36.833 -78.166 -64.5 -110.499s-60.667 -59 -99 -80
s-80.166 -33.5 -125.499 -37.5c-49.333 -30.667 -74 -59 -74 -85c0 -11.333 5.33301 -20.5 16 -27.5s27 -10.833 49 -11.5zM194.999 353.999c0 -27.333 3.83203 -53.835 11.499 -79.502s18.667 -48.5 33 -68.5s32.333 -36 54 -48s46.5 -18 74.5 -18
c28.667 0 53.667 6.33301 75 19s39.166 29.167 53.499 49.5s25 43.333 32 69s10.5 51.834 10.5 78.501c0 27.333 -3.83301 53.833 -11.5 79.5s-18.834 48.334 -33.501 68.001s-32.667 35.334 -54 47.001s-45.666 17.5 -72.999 17.5c-28.667 0 -53.667 -6.16699 -75 -18.5
s-39.166 -28.5 -53.499 -48.5s-25.166 -42.833 -32.499 -68.5s-11 -51.834 -11 -78.501z" />
    <glyph glyph-name="oogonek" unicode="&#x1eb;" horiz-adv-x="611" 
d="M330 -205c-40 5.33301 -69.668 16.668 -89.001 34.001s-29 37 -29 59c0 36.667 23.333 71 70 103c-41.333 2.66699 -77.833 11.834 -109.5 27.501s-58.5 35.834 -80.5 60.501s-38.667 52.667 -50 84s-17 64.333 -17 99c0 36 6.16699 70.5 18.5 103.5s30.5 62 54.5 87
s53.5 45 88.5 60s74.833 22.5 119.5 22.5s84.334 -7.5 119.001 -22.5s64 -35 88 -60s42.333 -54 55 -87s19 -67.5 19 -103.5c0 -31.333 -4.66699 -61.5 -14 -90.5s-23.166 -55.333 -41.499 -79s-40.833 -43.834 -67.5 -60.501s-57.334 -28.334 -92.001 -35.001
c-50.667 -30.667 -76 -59.334 -76 -86.001c0 -11.333 5.33301 -20.5 16 -27.5s27 -10.833 49 -11.5zM188.999 262.002c0 -41.333 10.999 -74.5 32.999 -99.5s50 -37.5 84 -37.5c16.667 0 32 3.33301 46 10s26.167 16 36.5 28s18.5 26.5 24.5 43.5s9 35.5 9 55.5
c0 41.333 -11 74.5 -33 99.5s-49.667 37.5 -83 37.5c-16.667 0 -32.167 -3.33301 -46.5 -10s-26.666 -16 -36.999 -28s-18.5 -26.5 -24.5 -43.5s-9 -35.5 -9 -55.5z" />
    <glyph glyph-name="Aringacute" unicode="&#x1fa;" horiz-adv-x="673" 
d="M415 804c18.667 -13.333 28 -33.334 28 -60.001c0 -25.333 -9.66699 -45.666 -29 -60.999l262 -683h-174l-55 159h-221l-54 -159h-174l262 683c-20 14 -30 34.333 -30 61c0 22 6.5 39.5 19.5 52.5s30.833 21.833 53.5 26.5l43 95h145zM337 535.999l-85 -264h167z
M337 778.999c-11.333 0 -20.833 -3.16699 -28.5 -9.5s-11.5 -14.5 -11.5 -24.5s3.83301 -18.333 11.5 -25s17.167 -10 28.5 -10c10.667 0 20 3.16699 28 9.5s12 14.833 12 25.5c0 10 -3.83301 18.167 -11.5 24.5s-17.167 9.5 -28.5 9.5z" />
    <glyph glyph-name="aringacute" unicode="&#x1fb;" horiz-adv-x="590" 
d="M204 -10c-26 0 -50.167 4.16797 -72.5 12.501s-41.5 20 -57.5 35s-28.667 32.667 -38 53s-14 42.5 -14 66.5c0 26 5.5 49.667 16.5 71s26.5 39.666 46.5 54.999s43.667 27.333 71 36s57.666 13 90.999 13c22 0 43.333 -1.83301 64 -5.5s38.667 -9.16699 54 -16.5v24
c0 60.667 -35 91 -105 91c-28.667 0 -56 -4.83301 -82 -14.5s-53.333 -24.167 -82 -43.5l-47 100c34.667 22.667 70.667 39.667 108 51s77 17 119 17c79.333 0 140.666 -18.667 183.999 -56s65 -92 65 -164v-135c0 -16 3 -27.167 9 -33.5s16.667 -10.166 32 -11.499v-135
c-15.333 -3.33301 -29.5 -5.5 -42.5 -6.5s-24.5 -1.5 -34.5 -1.5c-29.333 0.666992 -51.666 6.66699 -66.999 18s-25 27.666 -29 48.999l-3 24c-23.333 -30 -51.166 -53 -83.499 -69s-66.5 -24 -102.5 -24zM251 105.001c17.333 0 34.166 2.99805 50.499 8.99805
s29.833 14 40.5 24c15.333 12 23 24.667 23 38v50c-14 5.33301 -29.167 9.5 -45.5 12.5s-31.5 4.5 -45.5 4.5c-29.333 0 -53.5 -6.66699 -72.5 -20s-28.5 -30.666 -28.5 -51.999c0 -19.333 7.33301 -35.166 22 -47.499s33.334 -18.5 56.001 -18.5zM322 750.999l-102 28
l52 130h145zM169 647.999c0 27.333 9.83301 47.833 29.5 61.5s45.5 20.5 77.5 20.5s57.667 -6.83301 77 -20.5s29 -34.167 29 -61.5c0 -26.667 -9.66699 -46.834 -29 -60.501s-45 -20.5 -77 -20.5s-57.833 6.83301 -77.5 20.5s-29.5 33.834 -29.5 60.501zM276 682.999
c-11.333 0 -20.833 -3.16699 -28.5 -9.5s-11.5 -14.5 -11.5 -24.5s3.83301 -18.333 11.5 -25s17.167 -10 28.5 -10c10.667 0 20 3.16699 28 9.5s12 14.833 12 25.5c0 10 -3.83301 18.167 -11.5 24.5s-17.167 9.5 -28.5 9.5z" />
    <glyph glyph-name="AEacute" unicode="&#x1fc;" horiz-adv-x="977" 
d="M651 757l-102 28l52 130h145zM419 710h516v-144h-310v-133h256v-143h-256v-146h319v-144h-482v159h-215l-91 -159h-174zM450 303v224l-133 -224h133z" />
    <glyph glyph-name="aeacute" unicode="&#x1fd;" horiz-adv-x="940" 
d="M505 572l-102 28l52 130h145zM204 -10c-26 0 -49.9971 4.16797 -71.9971 12.501s-41 20 -57 35s-28.667 32.667 -38 53s-14 42.5 -14 66.5c0 26 5.5 49.667 16.5 71s26.5 39.666 46.5 54.999s43.667 27.333 71 36s57.333 13 90 13c21.333 0 41.666 -1.83301 60.999 -5.5
s36.666 -8.5 51.999 -14.5c0.666992 3.33301 1.16699 8.5 1.5 15.5s1.16602 11.833 2.49902 14.5c-1.33301 28 -10.5 48.833 -27.5 62.5s-42.5 20.5 -76.5 20.5c-28.667 0 -56 -4.83301 -82 -14.5s-53 -24.167 -81 -43.5l-48 100c35.333 22.667 71.5 39.667 108.5 51
s76.5 17 118.5 17c40 0 75.5 -5.5 106.5 -16.5s56.833 -26.833 77.5 -47.5c22.667 19.333 49 34.833 79 46.5s64 17.5 102 17.5c44.667 0 84.5 -7.33301 119.5 -22s64.5 -34.5 88.5 -59.5s42.167 -54 54.5 -87s18.5 -67.833 18.5 -104.5c0 -8 -0.333008 -16.5 -1 -25.5
s-1.66699 -16.833 -3 -23.5h-391c1.33301 -17.333 5.5 -32.833 12.5 -46.5s16 -25 27 -34s23.333 -15.833 37 -20.5s28.167 -7 43.5 -7c24 0 46.667 5.66699 68 17s35.666 26.666 42.999 45.999l136 -38c-20.667 -41.333 -52.667 -75 -96 -101s-95.333 -39 -156 -39
c-52 0 -97.167 9.5 -135.5 28.5s-69.5 44.5 -93.5 76.5c-12 -18.667 -26.5 -34.667 -43.5 -48s-34.833 -24.166 -53.5 -32.499s-37.667 -14.5 -57 -18.5s-37.666 -6 -54.999 -6zM251.003 105.001c17.333 0 34.166 2.99707 50.499 8.99707s29.833 14 40.5 24
c15.333 12 23.333 24.333 24 37c-1.33301 1.33301 -2.16602 4.5 -2.49902 9.5s-0.833008 10.5 -1.5 16.5s-1.16699 11.5 -1.5 16.5s-0.5 8.5 -0.5 10.5c-13.333 4.66699 -27.5 8.33398 -42.5 11.001s-29.167 4 -42.5 4c-30 0 -54.333 -6.66699 -73 -20
s-28 -30.666 -28 -51.999c0 -19.333 7.33301 -35.166 22 -47.499s33 -18.5 55 -18.5zM753.003 309.998c-3.33301 33.333 -15.334 60 -36.001 80s-47 30 -79 30s-58.167 -10 -78.5 -30s-32.166 -46.667 -35.499 -80h229z" />
    <glyph glyph-name="Oslashacute" unicode="&#x1fe;" horiz-adv-x="736" 
d="M708 710l-84.998 -118.999c27.333 -34 48.166 -71.5 62.499 -112.5s21.5 -82.833 21.5 -125.5c0 -46.667 -8.5 -91.667 -25.5 -135s-40.5 -81.5 -70.5 -114.5s-65.833 -59.5 -107.5 -79.5s-87.167 -30 -136.5 -30c-52.667 0 -100.667 11.333 -144 34l-20 -28h-176l84 119
c-26 33.333 -46.167 70.333 -60.5 111s-21.5 82.667 -21.5 126c0 46.667 8.5 91.667 25.5 135s40.667 81.5 71 114.5s66.333 59.333 108 79s87.167 29.5 136.5 29.5c26 0 50.667 -2.83301 74 -8.5s45.666 -13.834 66.999 -24.501l20 29h177zM540.002 356.001
c0 32.667 -5.66699 63.999 -17 93.999l-213 -299c18.667 -7.33301 38.334 -11 59.001 -11c28.667 0 53.667 6.33301 75 19s39.166 29.167 53.499 49.5s25 43.333 32 69s10.5 51.834 10.5 78.501zM196.002 354c0 -34.667 5.33105 -65.999 15.998 -93.999l211 298
c-8.66699 3.33301 -17.5 5.83301 -26.5 7.5s-18.5 2.5 -28.5 2.5c-28.667 0 -53.667 -6.16699 -75 -18.5s-39.166 -28.5 -53.499 -48.5s-25.166 -42.833 -32.499 -68.5s-11 -51.834 -11 -78.501zM416 757.001l-102 28l52 130h145z" />
    <glyph glyph-name="oslashacute" unicode="&#x1ff;" horiz-adv-x="609" 
d="M98 70c-24 25.333 -42.334 54.5 -55.001 87.5s-19 67.833 -19 104.5c0 36 6.16699 70.5 18.5 103.5s30.5 62 54.5 87s53.5 45 88.5 60s74.833 22.5 119.5 22.5c29.333 0 56.333 -3.33301 81 -10s47.334 -15.667 68.001 -27l27 32h88l-62 -72
c25.333 -25.333 44.833 -54.833 58.5 -88.5s20.5 -69.5 20.5 -107.5c0 -36 -6.16699 -70.5 -18.5 -103.5s-30.5 -62 -54.5 -87s-53.5 -44.833 -88.5 -59.5s-74.833 -22 -119.5 -22c-60 0 -111.667 13.333 -155 40l-30 -35h-87zM349.999 572l-102 28l52 130h145zM304.999 125
c16.667 0 31.999 3.33301 45.999 10s26.167 16 36.5 28s18.5 26.5 24.5 43.5s9 35.5 9 55.5c0 29.333 -6.33301 55 -19 77l-159 -196c16.667 -12 37.334 -18 62.001 -18zM187.998 262c0 -28.667 5.33203 -53.333 15.999 -74l158 195c-18 10.667 -37 16 -57 16
c-16.667 0 -32.167 -3.33301 -46.5 -10s-26.666 -16 -36.999 -28s-18.5 -26.5 -24.5 -43.5s-9 -35.5 -9 -55.5z" />
    <glyph glyph-name="uni0218" unicode="&#x218;" horiz-adv-x="616" 
d="M221 -138c25.333 0 38 9.00098 38 27.001v64h130v-70c0 -19.333 -4.33301 -34.5 -13 -45.5s-20.5 -19.333 -35.5 -25s-32.667 -9.33398 -53 -11.001s-42.5 -2.5 -66.5 -2.5v63zM495 502.001c-2.66699 2.66699 -9.99609 7.6582 -21.9961 14.9912s-27 15 -45 23
s-37.667 15 -59 21s-42.666 9 -63.999 9c-28 0 -49.5 -5 -64.5 -15s-22.5 -24.667 -22.5 -44c0 -12 3.33301 -22 10 -30s16.167 -15.167 28.5 -21.5s27.666 -12.166 45.999 -17.499l63.5 -18c34 -9.33301 64.667 -19.5 92 -30.5s50.666 -24.667 69.999 -41
s34.166 -36.166 44.499 -59.499s15.5 -51.333 15.5 -84c0 -40 -7.5 -73.833 -22.5 -101.5s-34.833 -50 -59.5 -67s-53.167 -29.333 -85.5 -37s-65.5 -11.5 -99.5 -11.5c-26 0 -52.5 2 -79.5 6s-53.5 9.83301 -79.5 17.5s-51.333 16.834 -76 27.501s-47.334 23 -68.001 37
l72 143c3.33301 -3.33301 12.333 -9.66602 27 -18.999s32.667 -18.666 54 -27.999s45.333 -17.666 72 -24.999s53.667 -11 81 -11c58 0 87 17.667 87 53c0 13.333 -4.33301 24.333 -13 33s-20.667 16.5 -36 23.5s-33.333 13.5 -54 19.5l-68 20
c-32.667 10 -61 20.833 -85 32.5s-44 25.167 -60 40.5s-27.833 33 -35.5 53s-11.5 43.333 -11.5 70c0 37.333 7 70.333 21 99s33 52.834 57 72.501s51.833 34.5 83.5 44.5s65.167 15 100.5 15c25.333 0 50 -2.33301 74 -7s46.833 -10.667 68.5 -18
s42.167 -15.666 61.5 -24.999s36.666 -18.666 51.999 -27.999z" />
    <glyph glyph-name="uni0219" unicode="&#x219;" horiz-adv-x="517" 
d="M169 -138c25.333 0 38 9.00098 38 27.001v64h130v-70c0 -19.333 -4.33301 -34.5 -13 -45.5s-20.5 -19.333 -35.5 -25s-32.667 -9.33398 -53 -11.001s-42.5 -2.5 -66.5 -2.5v63zM274 -9.99902c-22 0 -44.8359 1.66699 -68.5029 5s-47.167 7.83301 -70.5 13.5
s-45.666 12.667 -66.999 21s-40 17.5 -56 27.5l63 108c34.667 -20 68.334 -35.333 101.001 -46s64 -16 94 -16c23.333 0 41.166 3.66699 53.499 11s18.5 18 18.5 32s-8.33301 24.833 -25 32.5s-45.334 16.834 -86.001 27.501c-35.333 9.33301 -65.333 18.666 -90 27.999
s-44.5 19.833 -59.5 31.5s-25.833 24.834 -32.5 39.501s-10 32 -10 52c0 26.667 5.5 51 16.5 73s26.167 40.667 45.5 56s42.166 27.333 68.499 36s55.166 13 86.499 13c36.667 0 74.167 -5.5 112.5 -16.5s75.833 -26.167 112.5 -45.5l-63 -101
c-32.667 18 -61.834 31.167 -87.501 39.5s-50.5 12.5 -74.5 12.5c-20 0 -36.5 -3.5 -49.5 -10.5s-19.5 -18.167 -19.5 -33.5c0 -7.33301 1.66699 -13.5 5 -18.5s8.83301 -9.66699 16.5 -14s17.834 -8.33301 30.501 -12s28.334 -7.83398 47.001 -12.501
c38.667 -10 71.334 -20 98.001 -30s48.334 -21.167 65.001 -33.5s28.667 -26.5 36 -42.5s11 -35 11 -57c0 -26 -5.16699 -49.5 -15.5 -70.5s-25.166 -38.833 -44.499 -53.5s-42.666 -26 -69.999 -34s-58 -12 -92 -12z" />
    <glyph glyph-name="uni021A" unicode="&#x21a;" horiz-adv-x="622" 
d="M213 -138c25.333 0 38 9.00098 38 27.001v64h130v-70c0 -19.333 -4.33301 -34.5 -13 -45.5s-20.5 -19.333 -35.5 -25s-32.667 -9.33398 -53 -11.001s-42.5 -2.5 -66.5 -2.5v63zM609 566.001h-216v-566h-164v566h-217v144h597v-144z" />
    <glyph glyph-name="uni021B" unicode="&#x21b;" horiz-adv-x="401" 
d="M129 -138c25.333 0 38 9.00098 38 27.001v64h130v-70c0 -19.333 -4.33301 -34.5 -13 -45.5s-20.5 -19.333 -35.5 -25s-32.667 -9.33398 -53 -11.001s-42.5 -2.5 -66.5 -2.5v63zM394 28.001c-22 -9.33301 -47 -18 -75 -26s-56.667 -12 -86 -12
c-20 0 -38.833 2.5 -56.5 7.5s-33.167 13 -46.5 24s-23.833 25.5 -31.5 43.5s-11.5 39.667 -11.5 65v274h-67v121h67v167h160v-167h107v-121h-107v-219c0 -17.333 4.5 -29.833 13.5 -37.5s20.167 -11.5 33.5 -11.5c11.333 0 23.333 2 36 6s24 8.33301 34 13z" />
    <glyph glyph-name="dotlessj" unicode="&#x237;" 
d="M21 -202c-26 0 -51.001 4.16602 -75.001 12.499s-45.667 20.833 -65 37.5l67 109c6.66699 -7.33301 14.667 -12.666 24 -15.999s19 -5 29 -5c15.333 0 28 5 38 15s15 23.333 15 40v534h160v-522c0 -30 -4.83301 -57.667 -14.5 -83s-23.167 -47 -40.5 -65
s-37.666 -32 -60.999 -42s-49 -15 -77 -15z" />
    <glyph glyph-name="schwa" unicode="&#x259;" horiz-adv-x="605" 
d="M300 -10c-44.667 0 -84.334 7.33203 -119.001 21.999s-64 34.5 -88 59.5s-42.333 54 -55 87s-19 67.5 -19 103.5c0 8.66699 0.333008 17.5 1 26.5s1.66699 16.833 3 23.5h388c-2.66699 35.333 -15.5 62 -38.5 80s-49.167 27 -78.5 27
c-23.333 0 -45.666 -5.66699 -66.999 -17s-35.666 -26.666 -42.999 -45.999l-136 39c20 40.667 51.667 74.167 95 100.5s95.666 39.5 156.999 39.5c44 0 83.333 -7.33301 118 -22s64.167 -34.167 88.5 -58.5s42.833 -52.833 55.5 -85.5s19 -67 19 -103
c0 -37.333 -6.16699 -72.833 -18.5 -106.5s-30.5 -63 -54.5 -88s-53.5 -44.833 -88.5 -59.5s-74.833 -22 -119.5 -22zM303 104.999c30.667 0 56.1689 9.83301 76.502 29.5s32.166 46.167 35.499 79.5h-227c3.33301 -33.333 15.666 -59.833 36.999 -79.5
s47.333 -29.5 78 -29.5z" />
    <glyph glyph-name="apostrophe" unicode="&#x2bc;" horiz-adv-x="380" 
d="M209 572l-102 28l33 80l-8 50h173z" />
    <glyph glyph-name="circumflex" unicode="&#x2c6;" horiz-adv-x="384" 
d="M25 622l110 108h115l109 -108l-82 -36l-85 63l-85 -63z" />
    <glyph glyph-name="caron" unicode="&#x2c7;" horiz-adv-x="384" 
d="M107 730l85 -63l85 63l82 -37l-109 -107h-115l-110 107z" />
    <glyph glyph-name="breve" unicode="&#x2d8;" horiz-adv-x="347" 
d="M173 653c15.333 0 28.833 7.16699 40.5 21.5s18.5 32.833 20.5 55.5h83c0 -21.333 -3.5 -41 -10.5 -59s-16.833 -33.5 -29.5 -46.5s-27.834 -23.167 -45.501 -30.5s-37.167 -11 -58.5 -11s-40.666 3.66699 -57.999 11s-32.5 17.5 -45.5 30.5s-23 28.5 -30 46.5
s-10.5 37.667 -10.5 59h85c0 -21.333 5.83301 -39.5 17.5 -54.5s25.5 -22.5 41.5 -22.5z" />
    <glyph glyph-name="dotaccent" unicode="&#x2d9;" horiz-adv-x="244" 
d="M50 593v137h144v-137h-144z" />
    <glyph glyph-name="ring" unicode="&#x2da;" 
d="M27 648c0 27.333 9.83301 47.833 29.5 61.5s45.5 20.5 77.5 20.5s57.667 -6.83301 77 -20.5s29 -34.167 29 -61.5c0 -26.667 -9.66699 -46.834 -29 -60.501s-45 -20.5 -77 -20.5s-57.833 6.83301 -77.5 20.5s-29.5 33.834 -29.5 60.501zM134 683
c-11.333 0 -20.833 -3.16699 -28.5 -9.5s-11.5 -14.5 -11.5 -24.5s3.83301 -18.333 11.5 -25s17.167 -10 28.5 -10c10.667 0 20 3.16699 28 9.5s12 14.833 12 25.5c0 10 -3.83301 18.167 -11.5 24.5s-17.167 9.5 -28.5 9.5z" />
    <glyph glyph-name="ogonek" unicode="&#x2db;" horiz-adv-x="309" 
d="M187 -204c-40 5.33301 -69.667 16.6689 -89 34.002s-29 37 -29 59c0 23.333 10.5 46.666 31.5 69.999s52.5 44.666 94.5 63.999l40 -22c-54.667 -32 -82 -61.667 -82 -89c0 -11.333 5.33301 -20.5 16 -27.5s27 -10.833 49 -11.5l-31 -77v0z" />
    <glyph glyph-name="tilde" unicode="&#x2dc;" horiz-adv-x="450" 
d="M292 588c-15.333 0 -28.832 2.33301 -40.499 7s-22.5 10 -32.5 16s-19.667 11.333 -29 16s-19.666 7 -30.999 7s-20 -2.33301 -26 -7s-10.667 -10 -14 -16s-5.33301 -11.5 -6 -16.5s-1 -7.83301 -1 -8.5h-86c0 7.33301 2.16699 18.833 6.5 34.5s11.5 31.5 21.5 47.5
s23.167 30 39.5 42s36.166 18 59.499 18c16 0 29.667 -2.5 41 -7.5s21.833 -10.5 31.5 -16.5s19.167 -11.5 28.5 -16.5s20 -7.5 32 -7.5c11.333 0 20.5 2.5 27.5 7.5s12.333 10.5 16 16.5s6 11.667 7 17s1.5 8.33301 1.5 9h86c0 -5.33301 -2.33301 -15.666 -7 -30.999
s-12.167 -31.333 -22.5 -48s-23.833 -31.334 -40.5 -44.001s-37.334 -19 -62.001 -19z" />
    <glyph glyph-name="hungarumlaut" unicode="&#x2dd;" horiz-adv-x="381" 
d="M106 572l-77 28l45 130h120zM281 572l-77 28l44 130h120z" />
    <glyph glyph-name="uni03BC" unicode="&#x3bc;" horiz-adv-x="640" 
d="M54 525h160v-301c0 -32 6.33301 -56.5 19 -73.5s32 -25.5 58 -25.5c19.333 0 39 5.66699 59 17s37.667 31 53 59v324h160v-345c0 -16 2.83301 -27.167 8.5 -33.5s16.167 -10.166 31.5 -11.499v-135c-16 -3.33301 -30.333 -5.5 -43 -6.5s-23.667 -1.5 -33 -1.5
c-56 1.33301 -88 23.666 -96 66.999l-4 32c-4 -10 -11 -20.833 -21 -32.5s-21.5 -22.5 -34.5 -32.5s-27.333 -18.5 -43 -25.5s-31.5 -10.5 -47.5 -10.5c-12 0 -22.5 1.83301 -31.5 5.5s-16.667 8 -23 13s-11.333 10.333 -15 16s-6.16699 10.167 -7.5 13.5l10 -251h-160v738z
" />
    <glyph glyph-name="Ndotaccent" unicode="&#x1e44;" horiz-adv-x="759" 
d="M306 777v137h144v-137h-144zM232 406v-406h-164v710h128l331 -417v417h164v-710h-132z" />
    </font>
</defs>
</svg>
